  0
SECTION
  2
HEADER
  9
$ACADVER
  1
AC1014
  9
$ACADMAINTVER
 70
     9
  9
$DWGCODEPAGE
  3
ANSI_932
  9
$INSBASE
 10
0.0
 20
0.0
 30
0.0
  9
$EXTMIN
 10
1.162222541264555
 20
2.737764728202166
 30
0.0
  9
$EXTMAX
 10
960.1759205353809
 20
674.0473533240836
 30
0.0
  9
$LIMMIN
 10
0.0
 20
0.0
  9
$LIMMAX
 10
420.0
 20
297.0
  9
$ORTHOMODE
 70
     0
  9
$REGENMODE
 70
     1
  9
$FILLMODE
 70
     1
  9
$QTEXTMODE
 70
     0
  9
$MIRRTEXT
 70
     1
  9
$DRAGMODE
 70
     2
  9
$LTSCALE
 40
1.0
  9
$OSMODE
 70
     0
  9
$ATTMODE
 70
     1
  9
$TEXTSIZE
 40
3.5277777778
  9
$TRACEWID
 40
1.0
  9
$TEXTSTYLE
  7
STANDARD
  9
$CLAYER
  8
0
  9
$CELTYPE
  6
BYLAYER
  9
$CECOLOR
 62
   256
  9
$CELTSCALE
 40
1.0
  9
$DELOBJ
 70
     1
  9
$DISPSILH
 70
     0
  9
$DIMSCALE
 40
1.0
  9
$DIMASZ
 40
2.0
  9
$DIMEXO
 40
0.5
  9
$DIMDLI
 40
3.75
  9
$DIMRND
 40
0.0
  9
$DIMDLE
 40
0.0
  9
$DIMEXE
 40
0.5
  9
$DIMTP
 40
0.0
  9
$DIMTM
 40
0.0
  9
$DIMTXT
 40
3.5277777778
  9
$DIMCEN
 40
2.5
  9
$DIMTSZ
 40
0.0
  9
$DIMTOL
 70
     0
  9
$DIMLIM
 70
     0
  9
$DIMTIH
 70
     1
  9
$DIMTOH
 70
     1
  9
$DIMSE1
 70
     0
  9
$DIMSE2
 70
     0
  9
$DIMTAD
 70
     1
  9
$DIMZIN
 70
     0
  9
$DIMBLK
  1

  9
$DIMASO
 70
     1
  9
$DIMSHO
 70
     1
  9
$DIMPOST
  1

  9
$DIMAPOST
  1

  9
$DIMALT
 70
     0
  9
$DIMALTD
 70
     3
  9
$DIMALTF
 40
0.0393700787
  9
$DIMLFAC
 40
2.0
  9
$DIMTOFL
 70
     1
  9
$DIMTVP
 40
0.0
  9
$DIMTIX
 70
     0
  9
$DIMSOXD
 70
     0
  9
$DIMSAH
 70
     0
  9
$DIMBLK1
  1

  9
$DIMBLK2
  1

  9
$DIMSTYLE
  2
ISO-25
  9
$DIMCLRD
 70
     0
  9
$DIMCLRE
 70
     0
  9
$DIMCLRT
 70
     0
  9
$DIMTFAC
 40
1.0
  9
$DIMGAP
 40
0.5
  9
$DIMJUST
 70
     0
  9
$DIMSD1
 70
     0
  9
$DIMSD2
 70
     0
  9
$DIMTOLJ
 70
     0
  9
$DIMTZIN
 70
     0
  9
$DIMALTZ
 70
     0
  9
$DIMALTTZ
 70
     0
  9
$DIMFIT
 70
     5
  9
$DIMUPT
 70
     0
  9
$DIMUNIT
 70
     2
  9
$DIMDEC
 70
     1
  9
$DIMTDEC
 70
     1
  9
$DIMALTU
 70
     2
  9
$DIMALTTD
 70
     3
  9
$DIMTXSTY
  7
STANDARD
  9
$DIMAUNIT
 70
     0
  9
$LUNITS
 70
     2
  9
$LUPREC
 70
     1
  9
$SKETCHINC
 40
1.0
  9
$FILLETRAD
 40
10.0
  9
$AUNITS
 70
     0
  9
$AUPREC
 70
     2
  9
$MENU
  1
.
  9
$ELEVATION
 40
0.0
  9
$PELEVATION
 40
0.0
  9
$THICKNESS
 40
0.0
  9
$LIMCHECK
 70
     0
  9
$CHAMFERA
 40
0.0
  9
$CHAMFERB
 40
0.0
  9
$CHAMFERC
 40
0.0
  9
$CHAMFERD
 40
0.0
  9
$SKPOLY
 70
     0
  9
$TDCREATE
 40
2457549.872895278
  9
$TDUPDATE
 40
2458192.466707651
  9
$TDINDWG
 40
0.0087284722
  9
$TDUSRTIMER
 40
0.0005725231
  9
$USRTIMER
 70
     1
  9
$ANGBASE
 50
0.0
  9
$ANGDIR
 70
     0
  9
$PDMODE
 70
     0
  9
$PDSIZE
 40
-1.0
  9
$PLINEWID
 40
0.0
  9
$COORDS
 70
     1
  9
$SPLFRAME
 70
     0
  9
$SPLINETYPE
 70
     6
  9
$SPLINESEGS
 70
     8
  9
$ATTDIA
 70
     0
  9
$ATTREQ
 70
     1
  9
$HANDLING
 70
     1
  9
$HANDSEED
  5
11F7
  9
$SURFTAB1
 70
     6
  9
$SURFTAB2
 70
     6
  9
$SURFTYPE
 70
     6
  9
$SURFU
 70
     6
  9
$SURFV
 70
     6
  9
$UCSNAME
  2

  9
$UCSORG
 10
0.0
 20
0.0
 30
0.0
  9
$UCSXDIR
 10
1.0
 20
0.0
 30
0.0
  9
$UCSYDIR
 10
0.0
 20
1.0
 30
0.0
  9
$PUCSNAME
  2

  9
$PUCSORG
 10
0.0
 20
0.0
 30
0.0
  9
$PUCSXDIR
 10
1.0
 20
0.0
 30
0.0
  9
$PUCSYDIR
 10
0.0
 20
1.0
 30
0.0
  9
$USERI1
 70
     0
  9
$USERI2
 70
     0
  9
$USERI3
 70
     0
  9
$USERI4
 70
     0
  9
$USERI5
 70
     0
  9
$USERR1
 40
0.0
  9
$USERR2
 40
0.0
  9
$USERR3
 40
0.0
  9
$USERR4
 40
0.0
  9
$USERR5
 40
0.0
  9
$WORLDVIEW
 70
     1
  9
$SHADEDGE
 70
     3
  9
$SHADEDIF
 70
    70
  9
$TILEMODE
 70
     1
  9
$MAXACTVP
 70
    64
  9
$PINSBASE
 10
0.0
 20
0.0
 30
0.0
  9
$PLIMCHECK
 70
     0
  9
$PEXTMIN
 10
1.000000000000000E+20
 20
1.000000000000000E+20
 30
1.000000000000000E+20
  9
$PEXTMAX
 10
-1.000000000000000E+20
 20
-1.000000000000000E+20
 30
-1.000000000000000E+20
  9
$PLIMMIN
 10
0.0
 20
0.0
  9
$PLIMMAX
 10
0.0
 20
0.0
  9
$UNITMODE
 70
     0
  9
$VISRETAIN
 70
     1
  9
$PLINEGEN
 70
     0
  9
$PSLTSCALE
 70
     1
  9
$TREEDEPTH
 70
  3020
  9
$PICKSTYLE
 70
     1
  9
$CMLSTYLE
  2
STANDARD
  9
$CMLJUST
 70
     0
  9
$CMLSCALE
 40
20.0
  9
$PROXYGRAPHICS
 70
     1
  9
$MEASUREMENT
 70
     1
  0
ENDSEC
  0
SECTION
  2
CLASSES
  0
CLASS
  1
ACDBDICTIONARYWDFLT
  2
AcDbDictionaryWithDefault
  3
ObjectDBX Classes
 90
        0
280
     0
281
     0
  0
CLASS
  1
VISUALSTYLE
  2
AcDbVisualStyle
  3
ObjectDBX Classes
 90
     4095
280
     0
281
     0
  0
CLASS
  1
MATERIAL
  2
AcDbMaterial
  3
ObjectDBX Classes
 90
     1153
280
     0
281
     0
  0
CLASS
  1
SCALE
  2
AcDbScale
  3
ObjectDBX Classes
 90
     1153
280
     0
281
     0
  0
CLASS
  1
TABLESTYLE
  2
AcDbTableStyle
  3
ObjectDBX Classes
 90
     4095
280
     0
281
     0
  0
CLASS
  1
MLEADERSTYLE
  2
AcDbMLeaderStyle
  3
ACDB_MLEADERSTYLE_CLASS
 90
     4095
280
     0
281
     0
  0
CLASS
  1
SUN
  2
AcDbSun
  3
SCENEOE
 90
     1153
280
     0
281
     0
  0
CLASS
  1
ACDBPLACEHOLDER
  2
AcDbPlaceHolder
  3
ObjectDBX Classes
 90
        0
280
     0
281
     0
  0
CLASS
  1
LAYOUT
  2
AcDbLayout
  3
ObjectDBX Classes
 90
        0
280
     0
281
     0
  0
CLASS
  1
RASTERVARIABLES
  2
AcDbRasterVariables
  3
ISM
 90
        0
280
     0
281
     0
  0
CLASS
  1
SORTENTSTABLE
  2
AcDbSortentsTable
  3
ObjectDBX Classes
 90
        0
280
     0
281
     0
  0
CLASS
  1
DICTIONARYVAR
  2
AcDbDictionaryVar
  3
ObjectDBX Classes
 90
        0
280
     0
281
     0
  0
CLASS
  1
XRECORD
  2
AcDbXrecord
  3
ObjectDBX Classes
 90
        0
280
     0
281
     0
  0
CLASS
  1
LWPOLYLINE
  2
AcDbPolyline
  3
ObjectDBX Classes
 90
        0
280
     0
281
     1
  0
CLASS
  1
HATCH
  2
AcDbHatch
  3
ObjectDBX Classes
 90
        0
280
     0
281
     1
  0
ENDSEC
  0
SECTION
  2
TABLES
  0
TABLE
  2
VPORT
  5
8
330
0
100
AcDbSymbolTable
 70
     1
  0
VPORT
  5
29
330
8
100
AcDbSymbolTableRecord
100
AcDbViewportTableRecord
  2
*ACTIVE
 70
     0
 10
0.0
 20
0.0
 11
1.0
 21
1.0
 12
586.0922241357969
 22
189.337740292784
 13
0.0
 23
0.0
 14
10.0
 24
10.0
 15
10.0
 25
10.0
 16
0.0
 26
0.0
 36
1.0
 17
0.0
 27
0.0
 37
0.0
 40
1132.965087890625
 41
2.186861313868613
 42
50.0
 43
0.0
 44
0.0
 50
0.0
 51
0.0
 71
    16
 72
  2000
 73
     1
 74
     3
 75
     0
 76
     0
 77
     0
 78
     0
  0
ENDTAB
  0
TABLE
  2
LTYPE
  5
5
330
0
100
AcDbSymbolTable
 70
     6
  0
LTYPE
  5
14
330
5
100
AcDbSymbolTableRecord
100
AcDbLinetypeTableRecord
  2
BYBLOCK
 70
     0
  3

 72
    65
 73
     0
 40
0.0
  0
LTYPE
  5
15
330
5
100
AcDbSymbolTableRecord
100
AcDbLinetypeTableRecord
  2
BYLAYER
 70
     0
  3

 72
    65
 73
     0
 40
0.0
  0
LTYPE
  5
16
330
5
100
AcDbSymbolTableRecord
100
AcDbLinetypeTableRecord
  2
CONTINUOUS
 70
     0
  3
Solid line
 72
    65
 73
     0
 40
0.0
  0
LTYPE
  5
6E
330
5
100
AcDbSymbolTableRecord
100
AcDbLinetypeTableRecord
  2
HIDDEN
 70
     0
  3
Hidden __ __ __ __ __ __ __ __ __ __ __ __ __ __
 72
    65
 73
     2
 40
1.905
 49
1.27
 74
     0
 49
-0.635
 74
     0
  0
LTYPE
  5
6F
330
5
100
AcDbSymbolTableRecord
100
AcDbLinetypeTableRecord
  2
PHANTOM
 70
     0
  3
Phantom ______  __  __  ______  __  __  ______
 72
    65
 73
     6
 40
12.7
 49
6.35
 74
     0
 49
-1.27
 74
     0
 49
1.27
 74
     0
 49
-1.27
 74
     0
 49
1.27
 74
     0
 49
-1.27
 74
     0
  0
LTYPE
  5
70
330
5
100
AcDbSymbolTableRecord
100
AcDbLinetypeTableRecord
  2
CENTER
 70
     0
  3
Center ____ _ ____ _ ____ _ ____ _ ____ _ ____
 72
    65
 73
     4
 40
10.16
 49
6.35
 74
     0
 49
-1.27
 74
     0
 49
1.27
 74
     0
 49
-1.27
 74
     0
  0
LTYPE
  5
71
330
5
100
AcDbSymbolTableRecord
100
AcDbLinetypeTableRecord
  2
CENTERX2
 70
     0
  3
Center (2x) ________  __  ________  __  _____
 72
    65
 73
     4
 40
20.32
 49
12.7
 74
     0
 49
-2.54
 74
     0
 49
2.54
 74
     0
 49
-2.54
 74
     0
  0
LTYPE
  5
72
330
5
100
AcDbSymbolTableRecord
100
AcDbLinetypeTableRecord
  2
DOT2
 70
     0
  3
Dot (.5x) ........................................
 72
    65
 73
     2
 40
0.635
 49
0.0
 74
     0
 49
-0.635
 74
     0
  0
ENDTAB
  0
TABLE
  2
LAYER
  5
2
102
{ACAD_XDICTIONARY
360
8B8
102
}
330
0
100
AcDbSymbolTable
 70
    13
  0
LAYER
  5
10
330
2
100
AcDbSymbolTableRecord
100
AcDbLayerTableRecord
  2
0
 70
     0
 62
     7
  6
CONTINUOUS
  0
LAYER
  5
73
330
2
100
AcDbSymbolTableRecord
100
AcDbLayerTableRecord
  2
FORMAT
 70
     0
 62
     7
  6
CONTINUOUS
  0
LAYER
  5
74
330
2
100
AcDbSymbolTableRecord
100
AcDbLayerTableRecord
  2
SLD-0
 70
     0
 62
    36
  6
CONTINUOUS
  0
LAYER
  5
75
330
2
100
AcDbSymbolTableRecord
100
AcDbLayerTableRecord
  2
中心線
 70
     0
 62
    11
  6
CENTERX2
  0
LAYER
  5
76
330
2
100
AcDbSymbolTableRecord
100
AcDbLayerTableRecord
  2
寸法
 70
     0
 62
   150
  6
CONTINUOUS
  0
LAYER
  5
77
330
2
100
AcDbSymbolTableRecord
100
AcDbLayerTableRecord
  2
TEXT
 70
     0
 62
     7
  6
CONTINUOUS
  0
LAYER
  5
772
330
2
100
AcDbSymbolTableRecord
100
AcDbLayerTableRecord
  2
DEFPOINTS
 70
     0
 62
     7
  6
CONTINUOUS
  0
LAYER
  5
773
330
2
100
AcDbSymbolTableRecord
100
AcDbLayerTableRecord
  2
03_拡散カバー
 70
     0
 62
    51
  6
CONTINUOUS
1001
ACAECLAYERSTANDARD
1000

1000

  0
LAYER
  5
778
330
2
100
AcDbSymbolTableRecord
100
AcDbLayerTableRecord
  2
20_DIM
 70
     0
 62
     7
  6
CONTINUOUS
  0
LAYER
  5
77B
330
2
100
AcDbSymbolTableRecord
100
AcDbLayerTableRecord
  2
05_口金
 70
     0
 62
   132
  6
CONTINUOUS
1001
ACAECLAYERSTANDARD
1000

1000

  0
LAYER
  5
77E
330
2
100
AcDbSymbolTableRecord
100
AcDbLayerTableRecord
  2
03_アルミカバー
 70
     0
 62
   197
  6
CONTINUOUS
1001
ACAECLAYERSTANDARD
1000

1000

  0
LAYER
  5
781
330
2
100
AcDbSymbolTableRecord
100
AcDbLayerTableRecord
  2
20_DIM0
 70
     0
 62
   255
  6
CONTINUOUS
  0
LAYER
  5
B5B
330
2
100
AcDbSymbolTableRecord
100
AcDbLayerTableRecord
  2
00DIM
 70
     0
 62
     7
  6
CONTINUOUS
  0
ENDTAB
  0
TABLE
  2
STYLE
  5
3
330
0
100
AcDbSymbolTable
 70
    10
  0
STYLE
  5
11
330
3
100
AcDbSymbolTableRecord
100
AcDbTextStyleTableRecord
  2
STANDARD
 70
     0
 40
0.0
 41
1.0
 50
0.0
 71
     0
 42
3.5277777778
  3
msgothic.ttc
  4

1001
ACAD
1000
MS UI Gothic
1071
        0
  0
STYLE
  5
C6
330
3
100
AcDbSymbolTableRecord
100
AcDbTextStyleTableRecord
  2
SLDTEXTSTYLE0
 70
     0
 40
0.0
 41
0.75
 50
0.0
 71
     0
 42
3.5277777778
  3
TXT
  4
bigfont
  0
STYLE
  5
DD
330
3
100
AcDbSymbolTableRecord
100
AcDbTextStyleTableRecord
  2
SLDTEXTSTYLE1
 70
     0
 40
0.0
 41
0.6875
 50
0.0
 71
     0
 42
3.5277777778
  3
TXT
  4
bigfont
  0
STYLE
  5
DF
330
3
100
AcDbSymbolTableRecord
100
AcDbTextStyleTableRecord
  2
SLDTEXTSTYLE2
 70
     0
 40
0.0
 41
1.4803951116
 50
0.0
 71
     0
 42
3.5277777778
  3
TXT
  4
bigfont
  0
STYLE
  5
EA
330
3
100
AcDbSymbolTableRecord
100
AcDbTextStyleTableRecord
  2
SLDTEXTSTYLE3
 70
     0
 40
0.0
 41
0.5882352941
 50
0.0
 71
     0
 42
3.5277777778
  3
TXT
  4
bigfont
  0
STYLE
  5
EC
330
3
100
AcDbSymbolTableRecord
100
AcDbTextStyleTableRecord
  2
SLDTEXTSTYLE4
 70
     0
 40
0.0
 41
0.625
 50
0.0
 71
     0
 42
3.5277777778
  3
TXT
  4
bigfont
  0
STYLE
  5
EE
330
3
100
AcDbSymbolTableRecord
100
AcDbTextStyleTableRecord
  2
SLDTEXTSTYLE5
 70
     0
 40
0.0
 41
0.578125
 50
0.0
 71
     0
 42
3.5277777778
  3
TXT
  4
bigfont
  0
STYLE
  5
F0
330
3
100
AcDbSymbolTableRecord
100
AcDbTextStyleTableRecord
  2
SLDTEXTSTYLE6
 70
     0
 40
0.0
 41
0.5454545455
 50
0.0
 71
     0
 42
3.5277777778
  3
TXT
  4
bigfont
  0
STYLE
  5
F3
330
3
100
AcDbSymbolTableRecord
100
AcDbTextStyleTableRecord
  2
SLDTEXTSTYLE7
 70
     0
 40
0.0
 41
0.675
 50
0.0
 71
     0
 42
3.5277777778
  3
TXT
  4
bigfont
  0
STYLE
  5
10B
330
3
100
AcDbSymbolTableRecord
100
AcDbTextStyleTableRecord
  2
SLDTEXTSTYLE8
 70
     0
 40
0.0
 41
0.7
 50
0.0
 71
     0
 42
3.5277777778
  3
TXT
  4
bigfont
  0
ENDTAB
  0
TABLE
  2
VIEW
  5
6
330
0
100
AcDbSymbolTable
 70
     0
  0
ENDTAB
  0
TABLE
  2
UCS
  5
7
330
0
100
AcDbSymbolTable
 70
     0
  0
ENDTAB
  0
TABLE
  2
APPID
  5
9
330
0
100
AcDbSymbolTable
 70
     3
  0
APPID
  5
12
330
9
100
AcDbSymbolTableRecord
100
AcDbRegAppTableRecord
  2
ACAD
 70
     0
  0
APPID
  5
777
330
9
100
AcDbSymbolTableRecord
100
AcDbRegAppTableRecord
  2
ACAECLAYERSTANDARD
 70
     0
  0
APPID
  5
78A
330
9
100
AcDbSymbolTableRecord
100
AcDbRegAppTableRecord
  2
ACAD_PSEXT
 70
     0
  0
ENDTAB
  0
TABLE
  2
DIMSTYLE
  5
A
330
0
100
AcDbSymbolTable
 70
    18
  0
DIMSTYLE
105
27
330
A
100
AcDbSymbolTableRecord
100
AcDbDimStyleTableRecord
  2
ISO-25
 70
     0
  3

  4

  5

  6

  7

 40
1.0
 41
2.5
 42
0.625
 43
3.75
 44
1.25
 45
0.0
 46
0.0
 47
0.0
 48
0.0
140
2.5
141
2.5
142
0.0
143
0.0393700787
144
1.0
145
0.0
146
1.0
147
0.625
 71
     0
 72
     0
 73
     0
 74
     0
 75
     0
 76
     0
 77
     1
 78
     8
170
     0
171
     3
172
     1
173
     0
174
     0
175
     0
176
     0
177
     0
178
     0
270
     2
271
     2
272
     2
273
     2
274
     3
340
11
275
     0
280
     0
281
     0
282
     0
283
     0
284
     8
285
     0
286
     0
287
     3
288
     0
  0
DIMSTYLE
105
290
330
A
100
AcDbSymbolTableRecord
100
AcDbDimStyleTableRecord
  2
SLDDIMSTYLE0
 70
     0
  3

  4

  5

  6
OPEN30
  7
OPEN30
 40
1.0
 41
2.0
 42
0.0625
 43
0.38
 44
0.0
 45
0.000000001
 46
0.0
 47
0.3
 48
0.3
140
3.0316840278
141
0.09
142
0.0
143
25.4
144
2.0
145
0.0
146
1.0
147
0.7579210069
 71
     1
 72
     0
 73
     0
 74
     0
 75
     0
 76
     0
 77
     1
 78
    12
170
     0
171
     2
172
     0
173
     1
174
     0
175
     0
176
     0
177
     0
178
     0
270
     2
271
     1
272
     1
273
     2
274
     2
340
10B
275
     0
280
     0
281
     0
282
     0
283
     1
284
     8
285
     0
286
     0
287
     3
288
     0
  0
DIMSTYLE
105
2A1
330
A
100
AcDbSymbolTableRecord
100
AcDbDimStyleTableRecord
  2
SLDDIMSTYLE1
 70
     0
  3

  4

  5

  6
OPEN30
  7
OPEN30
 40
1.0
 41
2.0
 42
0.0625
 43
0.38
 44
0.0
 45
0.000000001
 46
0.0
 47
1.2
 48
1.2
140
3.0316840278
141
0.09
142
0.0
143
25.4
144
2.0
145
0.0
146
1.0
147
0.7579210069
 71
     1
 72
     0
 73
     0
 74
     0
 75
     0
 76
     0
 77
     1
 78
    12
170
     0
171
     2
172
     0
173
     1
174
     0
175
     0
176
     0
177
     0
178
     0
270
     2
271
     1
272
     1
273
     2
274
     2
340
10B
275
     0
280
     0
281
     0
282
     0
283
     1
284
     8
285
     0
286
     0
287
     3
288
     0
  0
DIMSTYLE
105
2B9
330
A
100
AcDbSymbolTableRecord
100
AcDbDimStyleTableRecord
  2
SLDDIMSTYLE2
 70
     0
  3

  4

  5

  6
OPEN30
  7
OPEN30
 40
1.0
 41
2.0
 42
0.0625
 43
0.38
 44
0.0
 45
0.000000001
 46
0.0
 47
0.2
 48
0.2
140
3.0316840278
141
0.09
142
0.0
143
25.4
144
2.0
145
0.0
146
1.0
147
0.7579210069
 71
     1
 72
     0
 73
     0
 74
     0
 75
     0
 76
     0
 77
     1
 78
    12
170
     0
171
     2
172
     1
173
     1
174
     0
175
     0
176
     0
177
     0
178
     0
270
     2
271
     1
272
     1
273
     2
274
     2
340
10B
275
     0
280
     0
281
     0
282
     0
283
     1
284
     8
285
     0
286
     0
287
     3
288
     0
  0
DIMSTYLE
105
2D4
330
A
100
AcDbSymbolTableRecord
100
AcDbDimStyleTableRecord
  2
SLDDIMSTYLE3
 70
     0
  3

  4

  5

  6
OPEN30
  7
OPEN30
 40
1.0
 41
2.0
 42
0.0625
 43
0.38
 44
0.0
 45
0.000000001
 46
0.0
 47
0.0
 48
0.0
140
3.0316840278
141
0.09
142
0.0
143
25.4
144
2.0
145
0.0
146
1.0
147
0.7579210069
 71
     0
 72
     0
 73
     0
 74
     0
 75
     0
 76
     0
 77
     1
 78
    12
170
     0
171
     2
172
     0
173
     1
174
     0
175
     0
176
     0
177
     0
178
     0
270
     2
271
     1
272
     1
273
     2
274
     2
340
10B
275
     0
280
     0
281
     0
282
     0
283
     1
284
    12
285
     0
286
     0
287
     3
288
     0
  0
DIMSTYLE
105
2DF
330
A
100
AcDbSymbolTableRecord
100
AcDbDimStyleTableRecord
  2
SLDDIMSTYLE4
 70
     0
  3

  4

  5

  6
OPEN30
  7
OPEN30
 40
1.0
 41
2.0
 42
0.0625
 43
0.38
 44
0.0
 45
0.000000001
 46
0.0
 47
1.3
 48
1.3
140
3.0316840278
141
0.09
142
0.0
143
25.4
144
2.0
145
0.0
146
1.0
147
0.7579210069
 71
     1
 72
     0
 73
     0
 74
     0
 75
     0
 76
     0
 77
     1
 78
    12
170
     0
171
     2
172
     0
173
     1
174
     0
175
     0
176
     0
177
     0
178
     0
270
     2
271
     1
272
     1
273
     2
274
     2
340
10B
275
     0
280
     0
281
     0
282
     0
283
     1
284
     8
285
     0
286
     0
287
     3
288
     0
  0
DIMSTYLE
105
2EB
330
A
100
AcDbSymbolTableRecord
100
AcDbDimStyleTableRecord
  2
SLDDIMSTYLE5
 70
     0
  3

  4

  5

  6
OPEN30
  7
OPEN30
 40
1.0
 41
2.0
 42
0.0625
 43
0.38
 44
0.0
 45
0.000000001
 46
0.0
 47
1.4
 48
1.4
140
3.0316840278
141
0.09
142
0.0
143
25.4
144
2.0
145
0.0
146
1.0
147
0.7579210069
 71
     1
 72
     0
 73
     0
 74
     0
 75
     0
 76
     0
 77
     1
 78
    12
170
     0
171
     2
172
     0
173
     1
174
     0
175
     0
176
     0
177
     0
178
     0
270
     2
271
     1
272
     1
273
     2
274
     2
340
10B
275
     0
280
     0
281
     0
282
     0
283
     1
284
     8
285
     0
286
     0
287
     3
288
     0
  0
DIMSTYLE
105
311
330
A
100
AcDbSymbolTableRecord
100
AcDbDimStyleTableRecord
  2
SLDDIMSTYLE6
 70
     0
  3

  4

  5

  6
OPEN30
  7
OPEN30
 40
1.0
 41
2.0
 42
0.0625
 43
0.38
 44
0.0
 45
0.000000001
 46
0.0
 47
20.0
 48
20.0
140
3.0316840278
141
0.09
142
0.0
143
25.4
144
2.0
145
0.0
146
1.0
147
0.7579210069
 71
     1
 72
     0
 73
     0
 74
     0
 75
     0
 76
     0
 77
     1
 78
    12
170
     0
171
     2
172
     0
173
     1
174
     0
175
     0
176
     0
177
     0
178
     0
270
     2
271
     1
272
     1
273
     2
274
     2
340
10B
275
     0
280
     0
281
     0
282
     0
283
     1
284
     8
285
     0
286
     0
287
     3
288
     0
  0
DIMSTYLE
105
328
330
A
100
AcDbSymbolTableRecord
100
AcDbDimStyleTableRecord
  2
SLDDIMSTYLE7
 70
     0
  3

  4

  5

  6
OPEN30
  7
OPEN30
 40
1.0
 41
2.0
 42
0.0625
 43
0.38
 44
0.0
 45
0.000000001
 46
0.0
 47
5.0
 48
5.0
140
3.0316840278
141
0.09
142
0.0
143
25.4
144
2.0
145
0.0
146
1.0
147
0.7579210069
 71
     1
 72
     0
 73
     0
 74
     0
 75
     0
 76
     0
 77
     1
 78
    12
170
     0
171
     2
172
     1
173
     1
174
     0
175
     0
176
     0
177
     0
178
     0
270
     2
271
     1
272
     1
273
     2
274
     2
340
10B
275
     0
280
     0
281
     0
282
     0
283
     1
284
     8
285
     0
286
     0
287
     3
288
     0
  0
DIMSTYLE
105
336
330
A
100
AcDbSymbolTableRecord
100
AcDbDimStyleTableRecord
  2
SLDDIMSTYLE8
 70
     0
  3

  4

  5

  6
OPEN30
  7
OPEN30
 40
1.0
 41
2.0
 42
0.0625
 43
0.38
 44
0.0
 45
0.000000001
 46
0.0
 47
5.0
 48
5.0
140
3.0316840278
141
0.09
142
0.0
143
25.4
144
2.0
145
0.0
146
1.0
147
0.7579210069
 71
     1
 72
     0
 73
     0
 74
     0
 75
     0
 76
     0
 77
     1
 78
    12
170
     0
171
     2
172
     0
173
     1
174
     0
175
     0
176
     0
177
     0
178
     0
270
     2
271
     1
272
     1
273
     2
274
     2
340
10B
275
     0
280
     0
281
     0
282
     0
283
     1
284
     8
285
     0
286
     0
287
     3
288
     0
  0
DIMSTYLE
105
37D
330
A
100
AcDbSymbolTableRecord
100
AcDbDimStyleTableRecord
  2
SLDDIMSTYLE9
 70
     0
  3

  4

  5

  6
DOT
  7
DOT
 40
1.0
 41
1.0
 42
0.0625
 43
0.38
 44
0.0
 45
0.000000001
 46
0.0
 47
0.0
 48
0.0
140
0.18
141
0.09
142
0.0
143
25.4
144
1.0
145
0.0
146
1.0
147
0.0
 71
     0
 72
     0
 73
     1
 74
     1
 75
     0
 76
     0
 77
     0
 78
     0
170
     0
171
     2
172
     0
173
     1
174
     0
175
     0
176
     0
177
     0
178
     0
270
     2
271
     0
272
     0
273
     2
274
     2
340
11
275
     0
280
     0
281
     0
282
     0
283
     1
284
     0
285
     0
286
     0
287
     3
288
     0
  0
DIMSTYLE
105
49D
330
A
100
AcDbSymbolTableRecord
100
AcDbDimStyleTableRecord
  2
SLDDIMSTYLE10
 70
     0
  3

  4

  5

  6
OPEN30
  7
OPEN30
 40
1.0
 41
2.0
 42
0.0625
 43
0.38
 44
0.0
 45
0.000000001
 46
0.0
 47
0.0
 48
0.0
140
3.0316840278
141
0.09
142
0.0
143
25.4
144
2.0
145
0.0
146
1.0
147
0.7579210069
 71
     0
 72
     0
 73
     0
 74
     0
 75
     0
 76
     0
 77
     1
 78
    12
170
     0
171
     2
172
     1
173
     1
174
     0
175
     0
176
     0
177
     0
178
     0
270
     2
271
     1
272
     1
273
     2
274
     2
340
10B
275
     0
280
     0
281
     0
282
     0
283
     1
284
    12
285
     0
286
     0
287
     3
288
     0
  0
DIMSTYLE
105
4CA
330
A
100
AcDbSymbolTableRecord
100
AcDbDimStyleTableRecord
  2
SLDDIMSTYLE11
 70
     0
  3

  4

  5

  6
OPEN30
  7
OPEN30
 40
1.0
 41
2.0
 42
0.0625
 43
0.38
 44
0.0
 45
0.000000001
 46
0.0
 47
0.0
 48
0.0
140
0.18
141
0.09
142
0.0
143
25.4
144
1.0
145
0.0
146
2.0
147
0.0
 71
     0
 72
     0
 73
     1
 74
     1
 75
     0
 76
     0
 77
     0
 78
     0
170
     0
171
     2
172
     0
173
     1
174
     0
175
     0
176
     0
177
     0
178
     0
270
     2
271
     0
272
     0
273
     2
274
     2
340
11
275
     0
280
     0
281
     0
282
     0
283
     1
284
     0
285
     0
286
     0
287
     3
288
     0
  0
DIMSTYLE
105
509
330
A
100
AcDbSymbolTableRecord
100
AcDbDimStyleTableRecord
  2
SLDDIMSTYLE12
 70
     0
  3

  4

  5

  6
NONE
  7
NONE
 40
1.0
 41
2.0
 42
0.0625
 43
0.38
 44
0.0
 45
0.000000001
 46
0.0
 47
0.0
 48
0.0
140
0.18
141
0.09
142
0.0
143
25.4
144
1.0
145
0.0
146
2.0
147
0.0
 71
     0
 72
     0
 73
     1
 74
     1
 75
     0
 76
     0
 77
     0
 78
     0
170
     0
171
     2
172
     0
173
     1
174
     0
175
     0
176
     0
177
     0
178
     0
270
     2
271
     0
272
     0
273
     2
274
     2
340
11
275
     0
280
     0
281
     0
282
     0
283
     1
284
     0
285
     0
286
     0
287
     3
288
     0
  0
DIMSTYLE
105
682
330
A
100
AcDbSymbolTableRecord
100
AcDbDimStyleTableRecord
  2
SLDDIMSTYLE13
 70
     0
  3

  4

  5

  6
OPEN30
  7
OPEN30
 40
1.0
 41
2.0
 42
0.0625
 43
0.38
 44
0.0
 45
0.000000001
 46
0.0
 47
0.5
 48
0.5
140
3.0316840278
141
0.09
142
0.0
143
25.4
144
2.0
145
0.0
146
1.0
147
0.7579210069
 71
     1
 72
     0
 73
     0
 74
     0
 75
     0
 76
     0
 77
     1
 78
    12
170
     0
171
     2
172
     1
173
     1
174
     0
175
     0
176
     0
177
     0
178
     0
270
     2
271
     1
272
     1
273
     2
274
     2
340
10B
275
     0
280
     0
281
     0
282
     0
283
     1
284
     8
285
     0
286
     0
287
     3
288
     0
  0
DIMSTYLE
105
690
330
A
100
AcDbSymbolTableRecord
100
AcDbDimStyleTableRecord
  2
SLDDIMSTYLE14
 70
     0
  3

  4

  5

  6
OPEN30
  7
OPEN30
 40
1.0
 41
2.0
 42
0.0625
 43
0.38
 44
0.0
 45
0.000000001
 46
0.0
 47
0.5
 48
0.5
140
3.0316840278
141
0.09
142
0.0
143
25.4
144
2.0
145
0.0
146
1.0
147
0.7579210069
 71
     1
 72
     0
 73
     0
 74
     0
 75
     0
 76
     0
 77
     1
 78
    12
170
     0
171
     2
172
     0
173
     1
174
     0
175
     0
176
     0
177
     0
178
     0
270
     2
271
     1
272
     1
273
     2
274
     2
340
10B
275
     0
280
     0
281
     0
282
     0
283
     1
284
     8
285
     0
286
     0
287
     3
288
     0
  0
DIMSTYLE
105
709
330
A
100
AcDbSymbolTableRecord
100
AcDbDimStyleTableRecord
  2
SLDDIMSTYLE15
 70
     0
  3

  4

  5

  6
OPEN30
  7
OPEN30
 40
1.0
 41
2.0
 42
0.0625
 43
0.38
 44
0.0
 45
0.000000001
 46
0.0
 47
0.8
 48
0.8
140
3.0316840278
141
0.09
142
0.0
143
25.4
144
0.5
145
0.0
146
1.0
147
0.7579210069
 71
     1
 72
     0
 73
     0
 74
     0
 75
     0
 76
     0
 77
     1
 78
    12
170
     0
171
     2
172
     1
173
     1
174
     0
175
     0
176
     0
177
     0
178
     0
270
     2
271
     1
272
     1
273
     2
274
     2
340
10B
275
     0
280
     0
281
     0
282
     0
283
     1
284
     8
285
     0
286
     0
287
     3
288
     0
  0
DIMSTYLE
105
782
102
{ACAD_REACTORS
330
FDF
330
FF4
330
FF5
330
FF6
330
FF7
330
FF8
330
FFA
330
FFC
330
FFE
330
1000
330
1048
330
108A
330
108C
330
108E
330
1090
330
1092
330
1096
102
}
330
A
100
AcDbSymbolTableRecord
100
AcDbDimStyleTableRecord
  2
STANDARD
 70
     0
  3

  4

  5
OPEN
  6

  7

 40
1.0
 41
2.5
 42
0.625
 43
5.0
 44
1.25
 45
0.0
 46
0.0
 47
0.0
 48
0.0
140
3.0
141
0.0
142
0.0
143
0.03937007874016
144
1.0
145
0.0
146
1.0
147
0.625
 71
     0
 72
     0
 73
     0
 74
     0
 75
     0
 76
     0
 77
     1
 78
     8
170
     0
171
     3
172
     1
173
     0
174
     0
175
     0
176
     0
177
     0
178
     0
179
     4
270
     2
271
     4
272
     4
273
     2
274
     3
340
11
275
     0
280
     0
281
     0
282
     0
283
     0
284
     8
285
     0
286
     0
287
     3
288
     0
  0
ENDTAB
  0
TABLE
  2
BLOCK_RECORD
  5
1
330
0
100
AcDbSymbolTable
 70
    90
  0
BLOCK_RECORD
  5
1F
330
1
100
AcDbSymbolTableRecord
100
AcDbBlockTableRecord
  2
*MODEL_SPACE
  0
BLOCK_RECORD
  5
1B
330
1
100
AcDbSymbolTableRecord
100
AcDbBlockTableRecord
  2
*PAPER_SPACE
  0
BLOCK_RECORD
  5
23
330
1
100
AcDbSymbolTableRecord
100
AcDbBlockTableRecord
  2
*PAPER_SPACE0
  0
BLOCK_RECORD
  5
78
330
1
100
AcDbSymbolTableRecord
100
AcDbBlockTableRecord
  2
ﾌﾞﾛｯｸ1
  0
BLOCK_RECORD
  5
111
330
1
100
AcDbSymbolTableRecord
100
AcDbBlockTableRecord
  2
SW_NOTE_0
  0
BLOCK_RECORD
  5
117
330
1
100
AcDbSymbolTableRecord
100
AcDbBlockTableRecord
  2
SW_TABLEANNOTATION_0
  0
BLOCK_RECORD
  5
291
330
1
100
AcDbSymbolTableRecord
100
AcDbBlockTableRecord
  2
_OPEN30
  0
BLOCK_RECORD
  5
297
330
1
100
AcDbSymbolTableRecord
100
AcDbBlockTableRecord
  2
_D
  0
BLOCK_RECORD
  5
2A2
330
1
100
AcDbSymbolTableRecord
100
AcDbBlockTableRecord
  2
_D_1
  0
BLOCK_RECORD
  5
2AD
330
1
100
AcDbSymbolTableRecord
100
AcDbBlockTableRecord
  2
_D_2
  0
BLOCK_RECORD
  5
2BA
330
1
100
AcDbSymbolTableRecord
100
AcDbBlockTableRecord
  2
_D_3
  0
BLOCK_RECORD
  5
2C7
330
1
100
AcDbSymbolTableRecord
100
AcDbBlockTableRecord
  2
_D_4
  0
BLOCK_RECORD
  5
2D5
330
1
100
AcDbSymbolTableRecord
100
AcDbBlockTableRecord
  2
_D_5
  0
BLOCK_RECORD
  5
2E0
330
1
100
AcDbSymbolTableRecord
100
AcDbBlockTableRecord
  2
_D_6
  0
BLOCK_RECORD
  5
2EC
330
1
100
AcDbSymbolTableRecord
100
AcDbBlockTableRecord
  2
_D_7
  0
BLOCK_RECORD
  5
2F7
330
1
100
AcDbSymbolTableRecord
100
AcDbBlockTableRecord
  2
_D_8
  0
BLOCK_RECORD
  5
304
330
1
100
AcDbSymbolTableRecord
100
AcDbBlockTableRecord
  2
_D_9
  0
BLOCK_RECORD
  5
312
330
1
100
AcDbSymbolTableRecord
100
AcDbBlockTableRecord
  2
_D_10
  0
BLOCK_RECORD
  5
31D
330
1
100
AcDbSymbolTableRecord
100
AcDbBlockTableRecord
  2
_D_11
  0
BLOCK_RECORD
  5
329
330
1
100
AcDbSymbolTableRecord
100
AcDbBlockTableRecord
  2
_D_12
  0
BLOCK_RECORD
  5
337
330
1
100
AcDbSymbolTableRecord
100
AcDbBlockTableRecord
  2
_D_13
  0
BLOCK_RECORD
  5
343
330
1
100
AcDbSymbolTableRecord
100
AcDbBlockTableRecord
  2
_D_14
  0
BLOCK_RECORD
  5
350
330
1
100
AcDbSymbolTableRecord
100
AcDbBlockTableRecord
  2
_D_15
  0
BLOCK_RECORD
  5
35D
330
1
100
AcDbSymbolTableRecord
100
AcDbBlockTableRecord
  2
SW_NOTE_1
  0
BLOCK_RECORD
  5
367
330
1
100
AcDbSymbolTableRecord
100
AcDbBlockTableRecord
  2
SW_NOTE_2
  0
BLOCK_RECORD
  5
370
330
1
100
AcDbSymbolTableRecord
100
AcDbBlockTableRecord
  2
SW_NOTE_3
  0
BLOCK_RECORD
  5
37E
330
1
100
AcDbSymbolTableRecord
100
AcDbBlockTableRecord
  2
_DOT
  0
BLOCK_RECORD
  5
387
330
1
100
AcDbSymbolTableRecord
100
AcDbBlockTableRecord
  2
SW_NOTE_4
  0
BLOCK_RECORD
  5
49E
330
1
100
AcDbSymbolTableRecord
100
AcDbBlockTableRecord
  2
_D_16
  0
BLOCK_RECORD
  5
4AA
330
1
100
AcDbSymbolTableRecord
100
AcDbBlockTableRecord
  2
_D_17
  0
BLOCK_RECORD
  5
4B3
330
1
100
AcDbSymbolTableRecord
100
AcDbBlockTableRecord
  2
SW_NOTE_5
  0
BLOCK_RECORD
  5
4BF
330
1
100
AcDbSymbolTableRecord
100
AcDbBlockTableRecord
  2
SW_NOTE_6
  0
BLOCK_RECORD
  5
4CC
330
1
100
AcDbSymbolTableRecord
100
AcDbBlockTableRecord
  2
SW_NOTE_7
  0
BLOCK_RECORD
  5
4D8
330
1
100
AcDbSymbolTableRecord
100
AcDbBlockTableRecord
  2
SW_NOTE_8
  0
BLOCK_RECORD
  5
4E4
330
1
100
AcDbSymbolTableRecord
100
AcDbBlockTableRecord
  2
SW_NOTE_9
  0
BLOCK_RECORD
  5
4F0
330
1
100
AcDbSymbolTableRecord
100
AcDbBlockTableRecord
  2
SW_NOTE_10
  0
BLOCK_RECORD
  5
4FC
330
1
100
AcDbSymbolTableRecord
100
AcDbBlockTableRecord
  2
SW_NOTE_11
  0
BLOCK_RECORD
  5
50A
330
1
100
AcDbSymbolTableRecord
100
AcDbBlockTableRecord
  2
_NONE
  0
BLOCK_RECORD
  5
683
330
1
100
AcDbSymbolTableRecord
100
AcDbBlockTableRecord
  2
_D_18
  0
BLOCK_RECORD
  5
691
330
1
100
AcDbSymbolTableRecord
100
AcDbBlockTableRecord
  2
_D_19
  0
BLOCK_RECORD
  5
69C
330
1
100
AcDbSymbolTableRecord
100
AcDbBlockTableRecord
  2
_D_20
  0
BLOCK_RECORD
  5
6A7
330
1
100
AcDbSymbolTableRecord
100
AcDbBlockTableRecord
  2
_D_21
  0
BLOCK_RECORD
  5
6B1
330
1
100
AcDbSymbolTableRecord
100
AcDbBlockTableRecord
  2
SW_NOTE_12
  0
BLOCK_RECORD
  5
6F0
330
1
100
AcDbSymbolTableRecord
100
AcDbBlockTableRecord
  2
SW_HATCH_0
  0
BLOCK_RECORD
  5
70A
330
1
100
AcDbSymbolTableRecord
100
AcDbBlockTableRecord
  2
_D_22
  0
BLOCK_RECORD
  5
716
330
1
100
AcDbSymbolTableRecord
100
AcDbBlockTableRecord
  2
SW_NOTE_13
  0
BLOCK_RECORD
  5
71C
330
1
100
AcDbSymbolTableRecord
100
AcDbBlockTableRecord
  2
SW_NOTE_14
  0
BLOCK_RECORD
  5
728
330
1
100
AcDbSymbolTableRecord
100
AcDbBlockTableRecord
  2
SW_NOTE_15
  0
BLOCK_RECORD
  5
734
330
1
100
AcDbSymbolTableRecord
100
AcDbBlockTableRecord
  2
SW_NOTE_16
  0
BLOCK_RECORD
  5
740
330
1
100
AcDbSymbolTableRecord
100
AcDbBlockTableRecord
  2
SW_NOTE_17
  0
BLOCK_RECORD
  5
784
330
1
100
AcDbSymbolTableRecord
100
AcDbBlockTableRecord
  2
_OPEN
  0
BLOCK_RECORD
  5
7D6
330
1
100
AcDbSymbolTableRecord
100
AcDbBlockTableRecord
  2
*D49
  0
BLOCK_RECORD
  5
7E3
330
1
100
AcDbSymbolTableRecord
100
AcDbBlockTableRecord
  2
*D50
  0
BLOCK_RECORD
  5
7EF
330
1
100
AcDbSymbolTableRecord
100
AcDbBlockTableRecord
  2
*D51
  0
BLOCK_RECORD
  5
7FD
330
1
100
AcDbSymbolTableRecord
100
AcDbBlockTableRecord
  2
*D52
  0
BLOCK_RECORD
  5
80B
330
1
100
AcDbSymbolTableRecord
100
AcDbBlockTableRecord
  2
*D53
  0
BLOCK_RECORD
  5
81B
330
1
100
AcDbSymbolTableRecord
100
AcDbBlockTableRecord
  2
_DOTSMALL
  0
BLOCK_RECORD
  5
868
330
1
100
AcDbSymbolTableRecord
100
AcDbBlockTableRecord
  2
*D55
  0
BLOCK_RECORD
  5
97A
330
1
100
AcDbSymbolTableRecord
100
AcDbBlockTableRecord
  2
*D56
  0
BLOCK_RECORD
  5
986
330
1
100
AcDbSymbolTableRecord
100
AcDbBlockTableRecord
  2
*D57
  0
BLOCK_RECORD
  5
991
330
1
100
AcDbSymbolTableRecord
100
AcDbBlockTableRecord
  2
*D58
  0
BLOCK_RECORD
  5
99E
330
1
100
AcDbSymbolTableRecord
100
AcDbBlockTableRecord
  2
*D59
  0
BLOCK_RECORD
  5
9AB
330
1
100
AcDbSymbolTableRecord
100
AcDbBlockTableRecord
  2
*D60
  0
BLOCK_RECORD
  5
9BA
330
1
100
AcDbSymbolTableRecord
100
AcDbBlockTableRecord
  2
*D61
  0
BLOCK_RECORD
  5
A15
330
1
100
AcDbSymbolTableRecord
100
AcDbBlockTableRecord
  2
SW_TABLEANNOTATION_1234560
  0
BLOCK_RECORD
  5
A8B
330
1
100
AcDbSymbolTableRecord
100
AcDbBlockTableRecord
  2
SW_TABLEANNOTATION_1234561
  0
BLOCK_RECORD
  5
BC1
330
1
100
AcDbSymbolTableRecord
100
AcDbBlockTableRecord
  2
*D64
  0
BLOCK_RECORD
  5
BCE
330
1
100
AcDbSymbolTableRecord
100
AcDbBlockTableRecord
  2
*D65
  0
BLOCK_RECORD
  5
BDA
330
1
100
AcDbSymbolTableRecord
100
AcDbBlockTableRecord
  2
*D66
  0
BLOCK_RECORD
  5
BE8
330
1
100
AcDbSymbolTableRecord
100
AcDbBlockTableRecord
  2
*D67
  0
BLOCK_RECORD
  5
BF6
330
1
100
AcDbSymbolTableRecord
100
AcDbBlockTableRecord
  2
*D68
  0
BLOCK_RECORD
  5
C91
330
1
100
AcDbSymbolTableRecord
100
AcDbBlockTableRecord
  2
*D69
  0
BLOCK_RECORD
  5
D76
330
1
100
AcDbSymbolTableRecord
100
AcDbBlockTableRecord
  2
*D70
  0
BLOCK_RECORD
  5
D82
330
1
100
AcDbSymbolTableRecord
100
AcDbBlockTableRecord
  2
*D71
  0
BLOCK_RECORD
  5
D8D
330
1
100
AcDbSymbolTableRecord
100
AcDbBlockTableRecord
  2
*D72
  0
BLOCK_RECORD
  5
D9A
330
1
100
AcDbSymbolTableRecord
100
AcDbBlockTableRecord
  2
*D73
  0
BLOCK_RECORD
  5
DA7
330
1
100
AcDbSymbolTableRecord
100
AcDbBlockTableRecord
  2
*D74
  0
BLOCK_RECORD
  5
DB6
330
1
100
AcDbSymbolTableRecord
100
AcDbBlockTableRecord
  2
*D75
  0
BLOCK_RECORD
  5
E7F
330
1
100
AcDbSymbolTableRecord
100
AcDbBlockTableRecord
  2
*D76
  0
BLOCK_RECORD
  5
EA2
330
1
100
AcDbSymbolTableRecord
100
AcDbBlockTableRecord
  2
*D77
  0
BLOCK_RECORD
  5
EAF
330
1
100
AcDbSymbolTableRecord
100
AcDbBlockTableRecord
  2
*D78
  0
BLOCK_RECORD
  5
EBB
330
1
100
AcDbSymbolTableRecord
100
AcDbBlockTableRecord
  2
*D79
  0
BLOCK_RECORD
  5
EC9
330
1
100
AcDbSymbolTableRecord
100
AcDbBlockTableRecord
  2
*D80
  0
BLOCK_RECORD
  5
ED7
330
1
100
AcDbSymbolTableRecord
100
AcDbBlockTableRecord
  2
*D81
  0
BLOCK_RECORD
  5
F39
330
1
100
AcDbSymbolTableRecord
100
AcDbBlockTableRecord
  2
*D82
  0
BLOCK_RECORD
  5
1097
330
1
100
AcDbSymbolTableRecord
100
AcDbBlockTableRecord
  2
*D83
  0
BLOCK_RECORD
  5
10A5
330
1
100
AcDbSymbolTableRecord
100
AcDbBlockTableRecord
  2
*D84
  0
BLOCK_RECORD
  5
10B1
330
1
100
AcDbSymbolTableRecord
100
AcDbBlockTableRecord
  2
*D85
  0
BLOCK_RECORD
  5
10BC
330
1
100
AcDbSymbolTableRecord
100
AcDbBlockTableRecord
  2
*D86
  0
BLOCK_RECORD
  5
10C9
330
1
100
AcDbSymbolTableRecord
100
AcDbBlockTableRecord
  2
*D87
  0
BLOCK_RECORD
  5
10D6
330
1
100
AcDbSymbolTableRecord
100
AcDbBlockTableRecord
  2
*D88
  0
BLOCK_RECORD
  5
10E5
330
1
100
AcDbSymbolTableRecord
100
AcDbBlockTableRecord
  2
*D89
  0
ENDTAB
  0
ENDSEC
  0
SECTION
  2
BLOCKS
  0
BLOCK
  5
20
330
1F
100
AcDbEntity
  8
0
100
AcDbBlockBegin
  2
*MODEL_SPACE
 70
     0
 10
0.0
 20
0.0
 30
0.0
  3
*MODEL_SPACE
  1

  0
ENDBLK
  5
21
330
1F
100
AcDbEntity
  8
0
100
AcDbBlockEnd
  0
BLOCK
  5
1C
330
1B
100
AcDbEntity
 67
     1
  8
0
100
AcDbBlockBegin
  2
*PAPER_SPACE
 70
     0
 10
0.0
 20
0.0
 30
0.0
  3
*PAPER_SPACE
  1

  0
ENDBLK
  5
1D
330
1B
100
AcDbEntity
 67
     1
  8
0
100
AcDbBlockEnd
  0
BLOCK
  5
24
330
23
100
AcDbEntity
  8
0
100
AcDbBlockBegin
  2
*PAPER_SPACE0
 70
     0
 10
0.0
 20
0.0
 30
0.0
  3
*PAPER_SPACE0
  1

  0
ENDBLK
  5
25
330
23
100
AcDbEntity
  8
0
100
AcDbBlockEnd
  0
BLOCK
  5
79
330
78
100
AcDbEntity
  8
0
100
AcDbBlockBegin
  2
ﾌﾞﾛｯｸ1
 70
     0
 10
0.0
 20
0.0
 30
0.0
  3
ﾌﾞﾛｯｸ1
  1

  0
LINE
  5
7B
330
78
100
AcDbEntity
  8
FORMAT
100
AcDbLine
 10
669.4951850981
 20
33.1868960966
 30
0.0
 11
670.990948574
 21
33.1868960966
 31
0.0
  0
LINE
  5
7C
330
78
100
AcDbEntity
  8
FORMAT
100
AcDbLine
 10
670.990948574
 20
33.1868960966
 30
0.0
 11
670.243066836
 21
31.6976077873
 31
0.0
  0
LINE
  5
7D
330
78
100
AcDbEntity
  8
FORMAT
100
AcDbLine
 10
670.243066836
 20
31.6976077873
 30
0.0
 11
669.4951850981
 21
33.1868960966
 31
0.0
  0
ENDBLK
  5
7A
330
78
100
AcDbEntity
  8
0
100
AcDbBlockEnd
  0
BLOCK
  5
112
330
111
100
AcDbEntity
  8
0
100
AcDbBlockBegin
  2
SW_NOTE_0
 70
     0
 10
0.0
 20
0.0
 30
0.0
  3
SW_NOTE_0
  1

  0
MTEXT
  5
114
330
111
100
AcDbEntity
  8
中心線
 62
     0
100
AcDbMText
 10
0.0
 20
4.0927900738
 30
0.0
 40
3.175
 41
0.0
 71
     1
 72
     1
  1
ユニット重量
  7
SLDTEXTSTYLE8
  0
MTEXT
  5
115
330
111
100
AcDbEntity
  8
中心線
 62
     0
100
AcDbMText
 10
0.0
 20
-0.1405432084
 30
0.0
 40
3.175
 41
0.0
 71
     1
 72
     1
  1
typ 1,100g
  7
SLDTEXTSTYLE8
  0
ENDBLK
  5
113
330
111
100
AcDbEntity
  8
0
100
AcDbBlockEnd
  0
BLOCK
  5
118
330
117
100
AcDbEntity
  8
0
100
AcDbBlockBegin
  2
SW_TABLEANNOTATION_0
 70
     0
 10
0.0
 20
0.0
 30
0.0
  3
SW_TABLEANNOTATION_0
  1

  0
LINE
  5
11A
330
117
100
AcDbEntity
  8
中心線
 62
     0
100
AcDbLine
 10
0.0
 20
0.0
 30
0.0
 11
0.0
 21
-65.7486265276
 31
0.0
  0
LINE
  5
11B
330
117
100
AcDbEntity
  8
中心線
 62
     0
100
AcDbLine
 10
0.0
 20
-65.7486265276
 30
0.0
 11
67.3935154057
 21
-65.7486265276
 31
0.0
  0
LINE
  5
11C
330
117
100
AcDbEntity
  8
中心線
 62
     0
100
AcDbLine
 10
67.3935154057
 20
-65.7486265276
 30
0.0
 11
67.3935154057
 21
0.0
 31
0.0
  0
LINE
  5
11D
330
117
100
AcDbEntity
  8
中心線
 62
     0
100
AcDbLine
 10
67.3935154057
 20
0.0
 30
0.0
 11
0.0
 21
0.0
 31
0.0
  0
LINE
  5
11E
330
117
100
AcDbEntity
  8
中心線
 62
     0
100
AcDbLine
 10
29.5152755678
 20
-6.6632760105
 30
0.0
 11
29.5152755678
 21
-65.7486265276
 31
0.0
  0
LINE
  5
11F
330
117
100
AcDbEntity
  8
中心線
 62
     0
100
AcDbLine
 10
0.0
 20
-6.6632760105
 30
0.0
 11
67.3935154057
 21
-6.6632760105
 31
0.0
  0
LINE
  5
120
330
117
100
AcDbEntity
  8
中心線
 62
     0
100
AcDbLine
 10
0.0
 20
-13.3265520211
 30
0.0
 11
67.3935154057
 21
-13.3265520211
 31
0.0
  0
LINE
  5
121
330
117
100
AcDbEntity
  8
中心線
 62
     0
100
AcDbLine
 10
0.0
 20
-19.9898280316
 30
0.0
 11
67.3935154057
 21
-19.9898280316
 31
0.0
  0
LINE
  5
122
330
117
100
AcDbEntity
  8
中心線
 62
     0
100
AcDbLine
 10
0.0
 20
-27.991805392
 30
0.0
 11
67.3935154057
 21
-27.991805392
 31
0.0
  0
LINE
  5
123
330
117
100
AcDbEntity
  8
中心線
 62
     0
100
AcDbLine
 10
0.0
 20
-34.9199444436
 30
0.0
 11
67.3935154057
 21
-34.9199444436
 31
0.0
  0
LINE
  5
124
330
117
100
AcDbEntity
  8
中心線
 62
     0
100
AcDbLine
 10
0.0
 20
-45.758798496
 30
0.0
 11
67.3935154057
 21
-45.758798496
 31
0.0
  0
LINE
  5
125
330
117
100
AcDbEntity
  8
中心線
 62
     0
100
AcDbLine
 10
0.0
 20
-52.4220745065
 30
0.0
 11
67.3935154057
 21
-52.4220745065
 31
0.0
  0
LINE
  5
126
330
117
100
AcDbEntity
  8
中心線
 62
     0
100
AcDbLine
 10
0.0
 20
-59.085350517
 30
0.0
 11
67.3935154057
 21
-59.085350517
 31
0.0
  0
MTEXT
  5
127
330
117
100
AcDbEntity
  8
中心線
 62
     0
100
AcDbMText
 10
25.5495357129
 20
-1.1088764577
 30
0.0
 40
3.5
 41
0.0
 71
     1
 72
     1
  1
電源仕様
  7
SLDTEXTSTYLE8
  0
MTEXT
  5
128
330
117
100
AcDbEntity
  8
中心線
 62
     0
100
AcDbMText
 10
0.5
 20
-7.7721524682
 30
0.0
 40
3.5
 41
0.0
 71
     1
 72
     1
  1
型式
  7
SLDTEXTSTYLE8
  0
MTEXT
  5
129
330
117
100
AcDbEntity
  8
中心線
 62
     0
100
AcDbMText
 10
38.55717274430003
 20
-7.772152468199977
 30
0.0
 40
3.5
 41
0.0
 71
     1
 72
     1
  1
{NSC20-50N}
  7
SLDTEXTSTYLE8
1001
ACAD
1000
ACAD_MTEXT_DEFINED_HEIGHT_BEGIN
1070
    46
1040
8.186702299949774
1000
ACAD_MTEXT_DEFINED_HEIGHT_END
  0
MTEXT
  5
12A
330
117
100
AcDbEntity
  8
中心線
 62
     0
100
AcDbMText
 10
0.5
 20
-14.1832586675
 30
0.0
 40
3.5
 41
0.0
 71
     1
 72
     1
  1
重量
  7
SLDTEXTSTYLE8
  0
MTEXT
  5
12B
330
117
100
AcDbEntity
  8
中心線
 62
     0
100
AcDbMText
 10
43.0293958548
 20
-14.1832586675
 30
0.0
 40
3.5
 41
0.0
 71
     1
 72
     1
  1
1,100g
  7
SLDTEXTSTYLE8
  0
MTEXT
  5
12C
330
117
100
AcDbEntity
  8
中心線
 62
     0
100
AcDbMText
 10
0.5
 20
-21.7680551643
 30
0.0
 40
3.5
 41
0.0
 71
     1
 72
     1
  1
入力電圧
  7
SLDTEXTSTYLE8
  0
MTEXT
  5
12D
330
117
100
AcDbEntity
  8
中心線
 62
     0
100
AcDbMText
 10
30.0452755678
 20
-22.2826238201
 30
0.0
 40
3.175
 41
0.0
 71
     1
 72
     1
  1
AC100V/200V/220V
  7
SLDTEXTSTYLE8
  0
MTEXT
  5
12E
330
117
100
AcDbEntity
  8
中心線
 62
     0
100
AcDbMText
 10
0.5
 20
-29.2331133702
 30
0.0
 40
3.5
 41
0.0
 71
     1
 72
     1
  1
電源周波数
  7
SLDTEXTSTYLE8
  0
MTEXT
  5
12F
330
117
100
AcDbEntity
  8
中心線
 62
     0
100
AcDbMText
 10
38.8901606116
 20
-29.2331133702
 30
0.0
 40
3.5
 41
0.0
 71
     1
 72
     1
  1
50Hz/60Hz
  7
SLDTEXTSTYLE8
  0
MTEXT
  5
130
330
117
100
AcDbEntity
  8
中心線
 62
     0
100
AcDbMText
 10
0.5
 20
-38.1166099222
 30
0.0
 40
3.5
 41
0.0
 71
     1
 72
     1
  1
入力電流
  7
SLDTEXTSTYLE8
  0
MTEXT
  5
131
330
117
100
AcDbEntity
  8
中心線
 62
     0
100
AcDbMText
 10
38.1148131478
 20
-36.0798044247
 30
0.0
 40
3.5
 41
0.0
 71
     1
 72
     1
  1
0.50A(100V)
  7
SLDTEXTSTYLE8
  0
MTEXT
  5
132
330
117
100
AcDbEntity
  8
中心線
 62
     0
100
AcDbMText
 10
38.1148131478
 20
-40.1534154197
 30
0.0
 40
3.5
 41
0.0
 71
     1
 72
     1
  1
0.25A(200V)
  7
SLDTEXTSTYLE8
  0
MTEXT
  5
133
330
117
100
AcDbEntity
  8
中心線
 62
     0
100
AcDbMText
 10
0.5
 20
-46.8676749537
 30
0.0
 40
3.5
 41
0.0
 71
     1
 72
     1
  1
出力電圧
  7
SLDTEXTSTYLE8
  0
MTEXT
  5
134
330
117
100
AcDbEntity
  8
中心線
 62
     0
100
AcDbMText
 10
42.4582147884
 20
-46.8676749537
 30
0.0
 40
3.5
 41
0.0
 71
     1
 72
     1
  1
DC42V
  7
SLDTEXTSTYLE8
  0
MTEXT
  5
135
330
117
100
AcDbEntity
  8
中心線
 62
     0
100
AcDbMText
 10
0.5
 20
-53.5309509642
 30
0.0
 40
3.5
 41
0.0
 71
     1
 72
     1
  1
IP保護等級
  7
SLDTEXTSTYLE8
  0
MTEXT
  5
136
330
117
100
AcDbEntity
  8
中心線
 62
     0
100
AcDbMText
 10
44.6602986108
 20
-53.5309509642
 30
0.0
 40
3.5
 41
0.0
 71
     1
 72
     1
  1
IP67
  7
SLDTEXTSTYLE8
  0
MTEXT
  5
137
330
117
100
AcDbEntity
  8
中心線
 62
     0
100
AcDbMText
 10
0.5
 20
-60.1942269747
 30
0.0
 40
3.5
 41
0.0
 71
     1
 72
     1
  1
適合規格
  7
SLDTEXTSTYLE8
  0
MTEXT
  5
138
330
117
100
AcDbEntity
  8
中心線
 62
     0
100
AcDbMText
 10
40.7446734521
 20
-60.1942269747
 30
0.0
 40
3.5
 41
0.0
 71
     1
 72
     1
  1
PSE適合
  7
SLDTEXTSTYLE8
  0
ENDBLK
  5
119
330
117
100
AcDbEntity
  8
0
100
AcDbBlockEnd
  0
BLOCK
  5
292
330
291
100
AcDbEntity
  8
0
100
AcDbBlockBegin
  2
_OPEN30
 70
     0
 10
0.0
 20
0.0
 30
0.0
  3
_OPEN30
  1

  0
LINE
  5
294
330
291
100
AcDbEntity
  8
0
  6
BYBLOCK
 62
     0
100
AcDbLine
 10
-1.0
 20
0.267949
 30
0.0
 11
0.0
 21
0.0
 31
0.0
  0
LINE
  5
295
330
291
100
AcDbEntity
  8
0
  6
BYBLOCK
 62
     0
100
AcDbLine
 10
0.0
 20
0.0
 30
0.0
 11
-1.0
 21
-0.267949
 31
0.0
  0
LINE
  5
296
330
291
100
AcDbEntity
  8
0
  6
BYBLOCK
 62
     0
100
AcDbLine
 10
0.0
 20
0.0
 30
0.0
 11
-1.0
 21
0.0
 31
0.0
  0
ENDBLK
  5
293
330
291
100
AcDbEntity
  8
0
100
AcDbBlockEnd
  0
BLOCK
  5
298
330
297
100
AcDbEntity
  8
0
100
AcDbBlockBegin
  2
_D
 70
     0
 10
0.0
 20
0.0
 30
0.0
  3
_D
  1

  0
INSERT
  5
29A
330
297
100
AcDbEntity
  8
中心線
100
AcDbBlockReference
  2
_OPEN30
 10
108.8396678839
 20
225.8539282573
 30
0.0
 41
2.0
 42
2.0
 50
90.0
  0
INSERT
  5
29B
330
297
100
AcDbEntity
  8
中心線
100
AcDbBlockReference
  2
_OPEN30
 10
108.8396678839
 20
207.3539282573
 30
0.0
 41
2.0
 42
2.0
 50
270.0
  0
LINE
  5
29C
330
297
100
AcDbEntity
  8
中心線
100
AcDbLine
 10
108.8396678839
 20
225.8539282573
 30
0.0
 11
108.8396678839
 21
207.3539282573
 31
0.0
  0
LINE
  5
29D
330
297
100
AcDbEntity
  8
中心線
100
AcDbLine
 10
108.8396678839
 20
207.3539282573
 30
0.0
 11
108.8396678839
 21
193.5897461332
 31
0.0
  0
MTEXT
  5
29E
330
297
100
AcDbEntity
  8
中心線
100
AcDbMText
 10
105.4290096055
 20
195.1772461332
 30
0.0
 40
2.6458333333
 41
0.0
 71
     1
 72
     1
  1
37
  7
SLDTEXTSTYLE8
 11
-7.044195017643634E-15
 21
1.0
 31
0.0
  0
MTEXT
  5
29F
330
297
100
AcDbEntity
  8
中心線
100
AcDbMText
 10
106.888168236
 20
199.7753595628
 30
0.0
 40
1.3229166667
 41
0.0
 71
     1
 72
     1
  1
±0.3
  7
SLDTEXTSTYLE8
 11
-7.044195017643634E-15
 21
1.0
 31
0.0
  0
ENDBLK
  5
299
330
297
100
AcDbEntity
  8
0
100
AcDbBlockEnd
  0
BLOCK
  5
2A3
330
2A2
100
AcDbEntity
  8
0
100
AcDbBlockBegin
  2
_D_1
 70
     0
 10
0.0
 20
0.0
 30
0.0
  3
_D_1
  1

  0
INSERT
  5
2A5
330
2A2
100
AcDbEntity
  8
中心線
100
AcDbBlockReference
  2
_OPEN30
 10
126.1480166536
 20
185.9617316411
 30
0.0
 41
2.0
 42
2.0
 50
180.0
  0
INSERT
  5
2A6
330
2A2
100
AcDbEntity
  8
中心線
100
AcDbBlockReference
  2
_OPEN30
 10
226.6480166536
 20
185.9617316411
 30
0.0
 41
2.0
 42
2.0
  0
LINE
  5
2A7
330
2A2
100
AcDbEntity
  8
中心線
100
AcDbLine
 10
126.1480166536
 20
204.2385458796
 30
0.0
 11
126.1480166536
 21
185.4617316411
 31
0.0
  0
LINE
  5
2A8
330
2A2
100
AcDbEntity
  8
中心線
100
AcDbLine
 10
226.6480166536
 20
203.897152637
 30
0.0
 11
226.6480166536
 21
185.4617316411
 31
0.0
  0
LINE
  5
2A9
330
2A2
100
AcDbEntity
  8
中心線
100
AcDbLine
 10
126.1480166536
 20
185.9617316411
 30
0.0
 11
226.6480166536
 21
185.9617316411
 31
0.0
  0
MTEXT
  5
2AA
330
2A2
100
AcDbEntity
  8
中心線
100
AcDbMText
 10
171.5945750714
 20
189.3723899195
 30
0.0
 40
2.6458333333
 41
0.0
 71
     1
 72
     1
  1
201
  7
SLDTEXTSTYLE8
  0
MTEXT
  5
2AB
330
2A2
100
AcDbEntity
  8
中心線
100
AcDbMText
 10
177.9510492772
 20
187.9132312889
 30
0.0
 40
1.3229166667
 41
0.0
 71
     1
 72
     1
  1
±1.2
  7
SLDTEXTSTYLE8
  0
ENDBLK
  5
2A4
330
2A2
100
AcDbEntity
  8
0
100
AcDbBlockEnd
  0
BLOCK
  5
2AE
330
2AD
100
AcDbEntity
  8
0
100
AcDbBlockBegin
  2
_D_2
 70
     0
 10
0.0
 20
0.0
 30
0.0
  3
_D_2
  1

  0
INSERT
  5
2B0
330
2AD
100
AcDbEntity
  8
中心線
100
AcDbBlockReference
  2
_OPEN30
 10
249.3242458448
 20
207.3539282573
 30
0.0
 41
2.0
 42
2.0
 50
270.0
  0
INSERT
  5
2B1
330
2AD
100
AcDbEntity
  8
中心線
100
AcDbBlockReference
  2
_OPEN30
 10
249.3242458448
 20
225.8539282573
 30
0.0
 41
2.0
 42
2.0
 50
90.0
  0
LINE
  5
2B2
330
2AD
100
AcDbEntity
  8
中心線
100
AcDbLine
 10
246.0358829628
 20
207.3539282573
 30
0.0
 11
249.8242458448
 21
207.3539282573
 31
0.0
  0
LINE
  5
2B3
330
2AD
100
AcDbEntity
  8
中心線
100
AcDbLine
 10
246.5513639789
 20
225.8539282573
 30
0.0
 11
249.8242458448
 21
225.8539282573
 31
0.0
  0
LINE
  5
2B4
330
2AD
100
AcDbEntity
  8
中心線
100
AcDbLine
 10
249.3242458448
 20
207.3539282573
 30
0.0
 11
249.3242458448
 21
194.457877014
 31
0.0
  0
LINE
  5
2B5
330
2AD
100
AcDbEntity
  8
中心線
100
AcDbLine
 10
249.3242458448
 20
207.3539282573
 30
0.0
 11
249.3242458448
 21
225.8539282573
 31
0.0
  0
MTEXT
  5
2B6
330
2AD
100
AcDbEntity
  8
中心線
100
AcDbMText
 10
245.9135875664
 20
196.045377014
 30
0.0
 40
2.6458333333
 41
0.0
 71
     1
 72
     1
  1
37
  7
SLDTEXTSTYLE8
 11
6.123233995736766E-17
 21
1.0
 31
0.0
  0
MTEXT
  5
2B7
330
2AD
100
AcDbEntity
  8
中心線
100
AcDbMText
 10
247.3727461969
 20
200.6434904436
 30
0.0
 40
1.3229166667
 41
0.0
 71
     1
 72
     1
  1
±0.3
  7
SLDTEXTSTYLE8
 11
6.123233995736766E-17
 21
1.0
 31
0.0
  0
ENDBLK
  5
2AF
330
2AD
100
AcDbEntity
  8
0
100
AcDbBlockEnd
  0
BLOCK
  5
2BB
330
2BA
100
AcDbEntity
  8
0
100
AcDbBlockBegin
  2
_D_3
 70
     0
 10
0.0
 20
0.0
 30
0.0
  3
_D_3
  1

  0
INSERT
  5
2BD
330
2BA
100
AcDbEntity
  8
中心線
100
AcDbBlockReference
  2
_OPEN30
 10
119.2922826594
 20
224.6039282573
 30
-11.0
 41
2.0
 42
2.0
 50
90.0
  0
INSERT
  5
2BE
330
2BA
100
AcDbEntity
  8
中心線
100
AcDbBlockReference
  2
_OPEN30
 10
119.2922826594
 20
227.1039282573
 30
-11.0
 41
2.0
 42
2.0
 50
270.0
  0
LINE
  5
2BF
330
2BA
100
AcDbEntity
  8
中心線
100
AcDbLine
 10
122.1480166536
 20
224.6039282573
 30
0.0
 11
118.7922826594
 21
224.6039282573
 31
0.0
  0
LINE
  5
2C0
330
2BA
100
AcDbEntity
  8
中心線
100
AcDbLine
 10
122.1480166536
 20
227.1039282573
 30
0.0
 11
118.7922826594
 21
227.1039282573
 31
0.0
  0
LINE
  5
2C1
330
2BA
100
AcDbEntity
  8
中心線
100
AcDbLine
 10
119.2922826594
 20
224.6039282573
 30
0.0
 11
119.2922826594
 21
221.6039282573
 31
0.0
  0
LINE
  5
2C2
330
2BA
100
AcDbEntity
  8
中心線
100
AcDbLine
 10
119.2922826594
 20
224.6039282573
 30
0.0
 11
119.2922826594
 21
227.1039282573
 31
0.0
  0
LINE
  5
2C3
330
2BA
100
AcDbEntity
  8
中心線
100
AcDbLine
 10
119.2922826594
 20
227.1039282573
 30
0.0
 11
119.2922826594
 21
239.2147557404
 31
0.0
  0
MTEXT
  5
2C4
330
2BA
100
AcDbEntity
  8
中心線
100
AcDbMText
 10
115.8816243811
 20
231.4554094162
 30
0.0
 40
2.6458333333
 41
0.0
 71
     1
 72
     1
  1
5
  7
SLDTEXTSTYLE8
 11
-4.379659758543259E-15
 21
1.0
 31
0.0
  0
MTEXT
  5
2C5
330
2BA
100
AcDbEntity
  8
中心線
100
AcDbMText
 10
117.3407830116
 20
234.2863702658
 30
0.0
 40
1.3229166667
 41
0.0
 71
     1
 72
     1
  1
±0.2
  7
SLDTEXTSTYLE8
 11
-4.379659758543259E-15
 21
1.0
 31
0.0
  0
ENDBLK
  5
2BC
330
2BA
100
AcDbEntity
  8
0
100
AcDbBlockEnd
  0
BLOCK
  5
2C8
330
2C7
100
AcDbEntity
  8
0
100
AcDbBlockBegin
  2
_D_4
 70
     0
 10
0.0
 20
0.0
 30
0.0
  3
_D_4
  1

  0
INSERT
  5
2CA
330
2C7
100
AcDbEntity
  8
中心線
100
AcDbBlockReference
  2
_OPEN30
 10
119.2922826594
 20
208.6039282573
 30
-11.0
 41
2.0
 42
2.0
 50
270.0
  0
INSERT
  5
2CB
330
2C7
100
AcDbEntity
  8
中心線
100
AcDbBlockReference
  2
_OPEN30
 10
119.2922826594
 20
206.1039282573
 30
-11.0
 41
2.0
 42
2.0
 50
90.0
  0
LINE
  5
2CC
330
2C7
100
AcDbEntity
  8
中心線
100
AcDbLine
 10
122.1480166536
 20
208.6039282573
 30
0.0
 11
118.7922826594
 21
208.6039282573
 31
0.0
  0
LINE
  5
2CD
330
2C7
100
AcDbEntity
  8
中心線
100
AcDbLine
 10
122.1480166536
 20
206.1039282573
 30
0.0
 11
118.7922826594
 21
206.1039282573
 31
0.0
  0
LINE
  5
2CE
330
2C7
100
AcDbEntity
  8
中心線
100
AcDbLine
 10
119.2922826594
 20
208.6039282573
 30
0.0
 11
119.2922826594
 21
211.6039282573
 31
0.0
  0
LINE
  5
2CF
330
2C7
100
AcDbEntity
  8
中心線
100
AcDbLine
 10
119.2922826594
 20
208.6039282573
 30
0.0
 11
119.2922826594
 21
206.1039282573
 31
0.0
  0
LINE
  5
2D0
330
2C7
100
AcDbEntity
  8
中心線
100
AcDbLine
 10
119.2922826594
 20
206.1039282573
 30
0.0
 11
119.2922826594
 21
194.4733224232
 31
0.0
  0
MTEXT
  5
2D1
330
2C7
100
AcDbEntity
  8
中心線
100
AcDbMText
 10
115.8816243811
 20
196.0608224232
 30
0.0
 40
2.6458333333
 41
0.0
 71
     1
 72
     1
  1
5
  7
SLDTEXTSTYLE8
 11
-3.491481338843133E-15
 21
1.0
 31
0.0
  0
MTEXT
  5
2D2
330
2C7
100
AcDbEntity
  8
中心線
100
AcDbMText
 10
117.3407830116
 20
198.8917832728
 30
0.0
 40
1.3229166667
 41
0.0
 71
     1
 72
     1
  1
±0.2
  7
SLDTEXTSTYLE8
 11
-3.491481338843133E-15
 21
1.0
 31
0.0
  0
ENDBLK
  5
2C9
330
2C7
100
AcDbEntity
  8
0
100
AcDbBlockEnd
  0
BLOCK
  5
2D6
330
2D5
100
AcDbEntity
  8
0
100
AcDbBlockBegin
  2
_D_5
 70
     0
 10
0.0
 20
0.0
 30
0.0
  3
_D_5
  1

  0
INSERT
  5
2D8
330
2D5
100
AcDbEntity
  8
中心線
100
AcDbBlockReference
  2
_OPEN30
 10
130.6480166536
 20
190.0017813164
 30
-11.0
 41
2.0
 42
2.0
 50
180.0
  0
INSERT
  5
2D9
330
2D5
100
AcDbEntity
  8
中心線
100
AcDbBlockReference
  2
_OPEN30
 10
222.1480166536
 20
190.0017813164
 30
-11.0
 41
2.0
 42
2.0
  0
LINE
  5
2DA
330
2D5
100
AcDbEntity
  8
中心線
100
AcDbLine
 10
130.6480166536
 20
197.3539282573
 30
0.0
 11
130.6480166536
 21
189.5017813164
 31
0.0
  0
LINE
  5
2DB
330
2D5
100
AcDbEntity
  8
中心線
100
AcDbLine
 10
222.1480166536
 20
197.3539282573
 30
0.0
 11
222.1480166536
 21
189.5017813164
 31
0.0
  0
LINE
  5
2DC
330
2D5
100
AcDbEntity
  8
中心線
100
AcDbLine
 10
130.6480166536
 20
190.0017813164
 30
0.0
 11
222.1480166536
 21
190.0017813164
 31
0.0
  0
MTEXT
  5
2DD
330
2D5
100
AcDbEntity
  8
中心線
100
AcDbMText
 10
172.129521418
 20
193.4124395948
 30
0.0
 40
2.6458333333
 41
0.0
 71
     1
 72
     1
  1
183
  7
SLDTEXTSTYLE8
  0
ENDBLK
  5
2D7
330
2D5
100
AcDbEntity
  8
0
100
AcDbBlockEnd
  0
BLOCK
  5
2E1
330
2E0
100
AcDbEntity
  8
0
100
AcDbBlockBegin
  2
_D_6
 70
     0
 10
0.0
 20
0.0
 30
0.0
  3
_D_6
  1

  0
INSERT
  5
2E3
330
2E0
100
AcDbEntity
  8
中心線
100
AcDbBlockReference
  2
_OPEN30
 10
122.6480166536
 20
181.8539282573
 30
-11.0
 41
2.0
 42
2.0
 50
180.0
  0
INSERT
  5
2E4
330
2E0
100
AcDbEntity
  8
中心線
100
AcDbBlockReference
  2
_OPEN30
 10
230.1480166536
 20
181.8539282573
 30
-11.0
 41
2.0
 42
2.0
  0
LINE
  5
2E5
330
2E0
100
AcDbEntity
  8
中心線
100
AcDbLine
 10
122.6480166536
 20
203.3539282573
 30
0.0
 11
122.6480166536
 21
181.3539282573
 31
0.0
  0
LINE
  5
2E6
330
2E0
100
AcDbEntity
  8
中心線
100
AcDbLine
 10
230.1480166536
 20
203.3539282573
 30
0.0
 11
230.1480166536
 21
181.3539282573
 31
0.0
  0
LINE
  5
2E7
330
2E0
100
AcDbEntity
  8
中心線
100
AcDbLine
 10
122.6480166536
 20
181.8539282573
 30
0.0
 11
230.1480166536
 21
181.8539282573
 31
0.0
  0
MTEXT
  5
2E8
330
2E0
100
AcDbEntity
  8
中心線
100
AcDbMText
 10
171.5952075988
 20
185.2645865357
 30
0.0
 40
2.6458333333
 41
0.0
 71
     1
 72
     1
  1
215
  7
SLDTEXTSTYLE8
  0
MTEXT
  5
2E9
330
2E0
100
AcDbEntity
  8
中心線
100
AcDbMText
 10
177.9516818046
 20
183.8054279051
 30
0.0
 40
1.3229166667
 41
0.0
 71
     1
 72
     1
  1
±1.3
  7
SLDTEXTSTYLE8
  0
ENDBLK
  5
2E2
330
2E0
100
AcDbEntity
  8
0
100
AcDbBlockEnd
  0
BLOCK
  5
2ED
330
2EC
100
AcDbEntity
  8
0
100
AcDbBlockBegin
  2
_D_7
 70
     0
 10
0.0
 20
0.0
 30
0.0
  3
_D_7
  1

  0
INSERT
  5
2EF
330
2EC
100
AcDbEntity
  8
中心線
100
AcDbBlockReference
  2
_OPEN30
 10
129.1480166536
 20
245.3539282573
 30
-11.0
 41
2.0
 42
2.0
 50
180.0
  0
INSERT
  5
2F0
330
2EC
100
AcDbEntity
  8
中心線
100
AcDbBlockReference
  2
_OPEN30
 10
223.6480166536
 20
245.3539282573
 30
-11.0
 41
2.0
 42
2.0
  0
LINE
  5
2F1
330
2EC
100
AcDbEntity
  8
中心線
100
AcDbLine
 10
129.1480166536
 20
235.8539282573
 30
0.0
 11
129.1480166536
 21
245.8539282573
 31
0.0
  0
LINE
  5
2F2
330
2EC
100
AcDbEntity
  8
中心線
100
AcDbLine
 10
223.6480166536
 20
235.8539282573
 30
0.0
 11
223.6480166536
 21
245.8539282573
 31
0.0
  0
LINE
  5
2F3
330
2EC
100
AcDbEntity
  8
中心線
100
AcDbLine
 10
129.1480166536
 20
245.3539282573
 30
0.0
 11
223.6480166536
 21
245.3539282573
 31
0.0
  0
MTEXT
  5
2F4
330
2EC
100
AcDbEntity
  8
中心線
100
AcDbMText
 10
171.5939748955
 20
248.7645865357
 30
0.0
 40
2.6458333333
 41
0.0
 71
     1
 72
     1
  1
189
  7
SLDTEXTSTYLE8
  0
MTEXT
  5
2F5
330
2EC
100
AcDbEntity
  8
中心線
100
AcDbMText
 10
177.9504491013
 20
247.3054279051
 30
0.0
 40
1.3229166667
 41
0.0
 71
     1
 72
     1
  1
±1.4
  7
SLDTEXTSTYLE8
  0
ENDBLK
  5
2EE
330
2EC
100
AcDbEntity
  8
0
100
AcDbBlockEnd
  0
BLOCK
  5
2F8
330
2F7
100
AcDbEntity
  8
0
100
AcDbBlockBegin
  2
_D_8
 70
     0
 10
0.0
 20
0.0
 30
0.0
  3
_D_8
  1

  0
INSERT
  5
2FA
330
2F7
100
AcDbEntity
  8
中心線
100
AcDbBlockReference
  2
_OPEN30
 10
235.8242458448
 20
206.1039282573
 30
-11.0
 41
2.0
 42
2.0
 50
90.0
  0
INSERT
  5
2FB
330
2F7
100
AcDbEntity
  8
中心線
100
AcDbBlockReference
  2
_OPEN30
 10
235.8242458448
 20
208.6039282573
 30
-11.0
 41
2.0
 42
2.0
 50
270.0
  0
LINE
  5
2FC
330
2F7
100
AcDbEntity
  8
中心線
100
AcDbLine
 10
230.6480166536
 20
206.1039282573
 30
0.0
 11
236.3242458448
 21
206.1039282573
 31
0.0
  0
LINE
  5
2FD
330
2F7
100
AcDbEntity
  8
中心線
100
AcDbLine
 10
230.6480166536
 20
208.6039282573
 30
0.0
 11
236.3242458448
 21
208.6039282573
 31
0.0
  0
LINE
  5
2FE
330
2F7
100
AcDbEntity
  8
中心線
100
AcDbLine
 10
235.8242458448
 20
206.1039282573
 30
0.0
 11
235.8242458448
 21
195.341453304
 31
0.0
  0
LINE
  5
2FF
330
2F7
100
AcDbEntity
  8
中心線
100
AcDbLine
 10
235.8242458448
 20
206.1039282573
 30
0.0
 11
235.8242458448
 21
208.6039282573
 31
0.0
  0
LINE
  5
300
330
2F7
100
AcDbEntity
  8
中心線
100
AcDbLine
 10
235.8242458448
 20
208.6039282573
 30
0.0
 11
235.8242458448
 21
211.6039282573
 31
0.0
  0
MTEXT
  5
301
330
2F7
100
AcDbEntity
  8
中心線
100
AcDbMText
 10
232.4135875664
 20
196.928953304
 30
0.0
 40
2.6458333333
 41
0.0
 71
     1
 72
     1
  1
5
  7
SLDTEXTSTYLE8
 11
-6.049014748177263E-16
 21
1.0
 31
0.0
  0
MTEXT
  5
302
330
2F7
100
AcDbEntity
  8
中心線
100
AcDbMText
 10
233.8727461969
 20
199.7599141536
 30
0.0
 40
1.3229166667
 41
0.0
 71
     1
 72
     1
  1
±0.2
  7
SLDTEXTSTYLE8
 11
-6.049014748177263E-16
 21
1.0
 31
0.0
  0
ENDBLK
  5
2F9
330
2F7
100
AcDbEntity
  8
0
100
AcDbBlockEnd
  0
BLOCK
  5
305
330
304
100
AcDbEntity
  8
0
100
AcDbBlockBegin
  2
_D_9
 70
     0
 10
0.0
 20
0.0
 30
0.0
  3
_D_9
  1

  0
INSERT
  5
307
330
304
100
AcDbEntity
  8
中心線
100
AcDbBlockReference
  2
_OPEN30
 10
235.8242458448
 20
224.6039282573
 30
-11.0
 41
2.0
 42
2.0
 50
90.0
  0
INSERT
  5
308
330
304
100
AcDbEntity
  8
中心線
100
AcDbBlockReference
  2
_OPEN30
 10
235.8242458448
 20
227.1039282573
 30
-11.0
 41
2.0
 42
2.0
 50
270.0
  0
LINE
  5
309
330
304
100
AcDbEntity
  8
中心線
100
AcDbLine
 10
230.6480166536
 20
224.6039282573
 30
0.0
 11
236.3242458448
 21
224.6039282573
 31
0.0
  0
LINE
  5
30A
330
304
100
AcDbEntity
  8
中心線
100
AcDbLine
 10
230.6480166536
 20
227.1039282573
 30
0.0
 11
236.3242458448
 21
227.1039282573
 31
0.0
  0
LINE
  5
30B
330
304
100
AcDbEntity
  8
中心線
100
AcDbLine
 10
235.8242458448
 20
224.6039282573
 30
0.0
 11
235.8242458448
 21
221.6039282573
 31
0.0
  0
LINE
  5
30C
330
304
100
AcDbEntity
  8
中心線
100
AcDbLine
 10
235.8242458448
 20
224.6039282573
 30
0.0
 11
235.8242458448
 21
227.1039282573
 31
0.0
  0
LINE
  5
30D
330
304
100
AcDbEntity
  8
中心線
100
AcDbLine
 10
235.8242458448
 20
227.1039282573
 30
0.0
 11
235.8242458448
 21
238.755498853
 31
0.0
  0
MTEXT
  5
30E
330
304
100
AcDbEntity
  8
中心線
100
AcDbMText
 10
232.4135875664
 20
230.9961525288
 30
0.0
 40
2.6458333333
 41
0.0
 71
     1
 72
     1
  1
5
  7
SLDTEXTSTYLE8
 11
6.123233995736766E-17
 21
1.0
 31
0.0
  0
MTEXT
  5
30F
330
304
100
AcDbEntity
  8
中心線
100
AcDbMText
 10
233.8727461969
 20
233.8271133783
 30
0.0
 40
1.3229166667
 41
0.0
 71
     1
 72
     1
  1
±0.2
  7
SLDTEXTSTYLE8
 11
6.123233995736766E-17
 21
1.0
 31
0.0
  0
ENDBLK
  5
306
330
304
100
AcDbEntity
  8
0
100
AcDbBlockEnd
  0
BLOCK
  5
313
330
312
100
AcDbEntity
  8
0
100
AcDbBlockBegin
  2
_D_10
 70
     0
 10
0.0
 20
0.0
 30
0.0
  3
_D_10
  1

  0
INSERT
  5
315
330
312
100
AcDbEntity
  8
中心線
100
AcDbBlockReference
  2
_OPEN30
 10
78.3980166536
 20
245.3539282573
 30
-11.0
 41
2.0
 42
2.0
 50
180.0
  0
INSERT
  5
316
330
312
100
AcDbEntity
  8
中心線
100
AcDbBlockReference
  2
_OPEN30
 10
129.1480166536
 20
245.3539282573
 30
-11.0
 41
2.0
 42
2.0
  0
LINE
  5
317
330
312
100
AcDbEntity
  8
中心線
100
AcDbLine
 10
78.3980166536
 20
218.8189282573
 30
0.0
 11
78.3980166536
 21
245.8539282573
 31
0.0
  0
LINE
  5
318
330
312
100
AcDbEntity
  8
中心線
100
AcDbLine
 10
129.1480166536
 20
235.8539282573
 30
0.0
 11
129.1480166536
 21
245.8539282573
 31
0.0
  0
LINE
  5
319
330
312
100
AcDbEntity
  8
中心線
100
AcDbLine
 10
78.3980166536
 20
245.3539282573
 30
0.0
 11
129.1480166536
 21
245.3539282573
 31
0.0
  0
MTEXT
  5
31A
330
312
100
AcDbEntity
  8
中心線
100
AcDbMText
 10
100.2162414445
 20
248.7645865357
 30
0.0
 40
2.6458333333
 41
0.0
 71
     1
 72
     1
  1
300
  7
SLDTEXTSTYLE8
  0
MTEXT
  5
31B
330
312
100
AcDbEntity
  8
中心線
100
AcDbMText
 10
106.5727156503
 20
247.3054279051
 30
0.0
 40
1.3229166667
 41
0.0
 71
     1
 72
     1
  1
±20
  7
SLDTEXTSTYLE8
  0
ENDBLK
  5
314
330
312
100
AcDbEntity
  8
0
100
AcDbBlockEnd
  0
BLOCK
  5
31E
330
31D
100
AcDbEntity
  8
0
100
AcDbBlockBegin
  2
_D_11
 70
     0
 10
0.0
 20
0.0
 30
0.0
  3
_D_11
  1

  0
INSERT
  5
320
330
31D
100
AcDbEntity
  8
中心線
100
AcDbBlockReference
  2
_OPEN30
 10
274.3980166536
 20
245.3539282573
 30
-11.0
 41
2.0
 42
2.0
  0
INSERT
  5
321
330
31D
100
AcDbEntity
  8
中心線
100
AcDbBlockReference
  2
_OPEN30
 10
223.6480166536
 20
245.3539282573
 30
-11.0
 41
2.0
 42
2.0
 50
180.0
  0
LINE
  5
322
330
31D
100
AcDbEntity
  8
中心線
100
AcDbLine
 10
274.3980166536
 20
218.8039282573
 30
0.0
 11
274.3980166536
 21
245.8539282573
 31
0.0
  0
LINE
  5
323
330
31D
100
AcDbEntity
  8
中心線
100
AcDbLine
 10
223.6480166536
 20
235.8539282573
 30
0.0
 11
223.6480166536
 21
245.8539282573
 31
0.0
  0
LINE
  5
324
330
31D
100
AcDbEntity
  8
中心線
100
AcDbLine
 10
274.3980166536
 20
245.3539282573
 30
0.0
 11
223.6480166536
 21
245.3539282573
 31
0.0
  0
MTEXT
  5
325
330
31D
100
AcDbEntity
  8
中心線
100
AcDbMText
 10
243.4576086243
 20
248.7645865357
 30
0.0
 40
2.6458333333
 41
0.0
 71
     1
 72
     1
  1
300
  7
SLDTEXTSTYLE8
  0
MTEXT
  5
326
330
31D
100
AcDbEntity
  8
中心線
100
AcDbMText
 10
249.81408283
 20
247.3054279051
 30
0.0
 40
1.3229166667
 41
0.0
 71
     1
 72
     1
  1
±20
  7
SLDTEXTSTYLE8
  0
ENDBLK
  5
31F
330
31D
100
AcDbEntity
  8
0
100
AcDbBlockEnd
  0
BLOCK
  5
32A
330
329
100
AcDbEntity
  8
0
100
AcDbBlockBegin
  2
_D_12
 70
     0
 10
0.0
 20
0.0
 30
0.0
  3
_D_12
  1

  0
INSERT
  5
32C
330
329
100
AcDbEntity
  8
中心線
100
AcDbBlockReference
  2
_OPEN30
 10
78.3980166536
 20
245.3539282573
 30
-11.0
 41
2.0
 42
2.0
 50
180.0
  0
INSERT
  5
32D
330
329
100
AcDbEntity
  8
中心線
100
AcDbBlockReference
  2
_OPEN30
 10
63.3980166536
 20
245.3539282573
 30
-11.0
 41
2.0
 42
2.0
  0
LINE
  5
32E
330
329
100
AcDbEntity
  8
中心線
100
AcDbLine
 10
78.3980166536
 20
218.8189282573
 30
0.0
 11
78.3980166536
 21
245.8539282573
 31
0.0
  0
LINE
  5
32F
330
329
100
AcDbEntity
  8
中心線
100
AcDbLine
 10
63.3980166536
 20
218.3784473101
 30
0.0
 11
63.3980166536
 21
245.8539282573
 31
0.0
  0
LINE
  5
330
330
329
100
AcDbEntity
  8
中心線
100
AcDbLine
 10
78.3980166536
 20
245.3539282573
 30
0.0
 11
81.3980166536
 21
245.3539282573
 31
0.0
  0
LINE
  5
331
330
329
100
AcDbEntity
  8
中心線
100
AcDbLine
 10
78.3980166536
 20
245.3539282573
 30
0.0
 11
63.3980166536
 21
245.3539282573
 31
0.0
  0
LINE
  5
332
330
329
100
AcDbEntity
  8
中心線
100
AcDbLine
 10
63.3980166536
 20
245.3539282573
 30
0.0
 11
60.3980166536
 21
245.3539282573
 31
0.0
  0
MTEXT
  5
333
330
329
100
AcDbEntity
  8
中心線
100
AcDbMText
 10
67.783520272
 20
248.7645865357
 30
0.0
 40
2.6458333333
 41
0.0
 71
     1
 72
     1
  1
30
  7
SLDTEXTSTYLE8
  0
MTEXT
  5
334
330
329
100
AcDbEntity
  8
中心線
100
AcDbMText
 10
72.3816337016
 20
247.3054279051
 30
0.0
 40
1.3229166667
 41
0.0
 71
     1
 72
     1
  1
±5
  7
SLDTEXTSTYLE8
  0
ENDBLK
  5
32B
330
329
100
AcDbEntity
  8
0
100
AcDbBlockEnd
  0
BLOCK
  5
338
330
337
100
AcDbEntity
  8
0
100
AcDbBlockBegin
  2
_D_13
 70
     0
 10
0.0
 20
0.0
 30
0.0
  3
_D_13
  1

  0
INSERT
  5
33A
330
337
100
AcDbEntity
  8
中心線
100
AcDbBlockReference
  2
_OPEN30
 10
63.3980166536
 20
245.3539282573
 30
-11.0
 41
2.0
 42
2.0
  0
INSERT
  5
33B
330
337
100
AcDbEntity
  8
中心線
100
AcDbBlockReference
  2
_OPEN30
 10
58.3980166536
 20
245.3539282573
 30
-11.0
 41
2.0
 42
2.0
 50
180.0
  0
LINE
  5
33C
330
337
100
AcDbEntity
  8
中心線
100
AcDbLine
 10
63.3980166536
 20
218.3784473101
 30
0.0
 11
63.3980166536
 21
245.8539282573
 31
0.0
  0
LINE
  5
33D
330
337
100
AcDbEntity
  8
中心線
100
AcDbLine
 10
58.3980166536
 20
218.1284473101
 30
0.0
 11
58.3980166536
 21
245.8539282573
 31
0.0
  0
LINE
  5
33E
330
337
100
AcDbEntity
  8
中心線
100
AcDbLine
 10
63.3980166536
 20
245.3539282573
 30
0.0
 11
58.3980166536
 21
245.3539282573
 31
0.0
  0
LINE
  5
33F
330
337
100
AcDbEntity
  8
中心線
100
AcDbLine
 10
58.3980166536
 20
245.3539282573
 30
0.0
 11
47.1173561819
 21
245.3539282573
 31
0.0
  0
MTEXT
  5
340
330
337
100
AcDbEntity
  8
中心線
100
AcDbMText
 10
48.7048561819
 20
248.7645865357
 30
0.0
 40
2.6458333333
 41
0.0
 71
     1
 72
     1
  1
10
  7
SLDTEXTSTYLE8
  0
MTEXT
  5
341
330
337
100
AcDbEntity
  8
中心線
100
AcDbMText
 10
53.3029696116
 20
247.3054279051
 30
0.0
 40
1.3229166667
 41
0.0
 71
     1
 72
     1
  1
±5
  7
SLDTEXTSTYLE8
  0
ENDBLK
  5
339
330
337
100
AcDbEntity
  8
0
100
AcDbBlockEnd
  0
BLOCK
  5
344
330
343
100
AcDbEntity
  8
0
100
AcDbBlockBegin
  2
_D_14
 70
     0
 10
0.0
 20
0.0
 30
0.0
  3
_D_14
  1

  0
INSERT
  5
346
330
343
100
AcDbEntity
  8
中心線
100
AcDbBlockReference
  2
_OPEN30
 10
274.3980166536
 20
245.3539282573
 30
-11.0
 41
2.0
 42
2.0
  0
INSERT
  5
347
330
343
100
AcDbEntity
  8
中心線
100
AcDbBlockReference
  2
_OPEN30
 10
289.3980166536
 20
245.3539282573
 30
-11.0
 41
2.0
 42
2.0
 50
180.0
  0
LINE
  5
348
330
343
100
AcDbEntity
  8
中心線
100
AcDbLine
 10
274.3980166536
 20
218.8039282573
 30
0.0
 11
274.3980166536
 21
245.8539282573
 31
0.0
  0
LINE
  5
349
330
343
100
AcDbEntity
  8
中心線
100
AcDbLine
 10
289.3980166536
 20
218.3789282573
 30
0.0
 11
289.3980166536
 21
245.8539282573
 31
0.0
  0
LINE
  5
34A
330
343
100
AcDbEntity
  8
中心線
100
AcDbLine
 10
274.3980166536
 20
245.3539282573
 30
0.0
 11
271.3980166536
 21
245.3539282573
 31
0.0
  0
LINE
  5
34B
330
343
100
AcDbEntity
  8
中心線
100
AcDbLine
 10
274.3980166536
 20
245.3539282573
 30
0.0
 11
289.3980166536
 21
245.3539282573
 31
0.0
  0
LINE
  5
34C
330
343
100
AcDbEntity
  8
中心線
100
AcDbLine
 10
289.3980166536
 20
245.3539282573
 30
0.0
 11
292.3980166536
 21
245.3539282573
 31
0.0
  0
MTEXT
  5
34D
330
343
100
AcDbEntity
  8
中心線
100
AcDbMText
 10
278.5788454073
 20
248.7645865357
 30
0.0
 40
2.6458333333
 41
0.0
 71
     1
 72
     1
  1
30
  7
SLDTEXTSTYLE8
  0
MTEXT
  5
34E
330
343
100
AcDbEntity
  8
中心線
100
AcDbMText
 10
283.176958837
 20
247.3054279051
 30
0.0
 40
1.3229166667
 41
0.0
 71
     1
 72
     1
  1
±5
  7
SLDTEXTSTYLE8
  0
ENDBLK
  5
345
330
343
100
AcDbEntity
  8
0
100
AcDbBlockEnd
  0
BLOCK
  5
351
330
350
100
AcDbEntity
  8
0
100
AcDbBlockBegin
  2
_D_15
 70
     0
 10
0.0
 20
0.0
 30
0.0
  3
_D_15
  1

  0
INSERT
  5
353
330
350
100
AcDbEntity
  8
中心線
100
AcDbBlockReference
  2
_OPEN30
 10
289.3980166536
 20
245.3539282573
 30
-11.0
 41
2.0
 42
2.0
 50
180.0
  0
INSERT
  5
354
330
350
100
AcDbEntity
  8
中心線
100
AcDbBlockReference
  2
_OPEN30
 10
294.3980166536
 20
245.3539282573
 30
-11.0
 41
2.0
 42
2.0
  0
LINE
  5
355
330
350
100
AcDbEntity
  8
中心線
100
AcDbLine
 10
289.3980166536
 20
218.3789282573
 30
0.0
 11
289.3980166536
 21
245.8539282573
 31
0.0
  0
LINE
  5
356
330
350
100
AcDbEntity
  8
中心線
100
AcDbLine
 10
294.3980166536
 20
218.1289282573
 30
0.0
 11
294.3980166536
 21
245.8539282573
 31
0.0
  0
LINE
  5
357
330
350
100
AcDbEntity
  8
中心線
100
AcDbLine
 10
289.3980166536
 20
245.3539282573
 30
0.0
 11
294.3980166536
 21
245.3539282573
 31
0.0
  0
LINE
  5
358
330
350
100
AcDbEntity
  8
中心線
100
AcDbLine
 10
294.3980166536
 20
245.3539282573
 30
0.0
 11
303.7932212329
 21
245.3539282573
 31
0.0
  0
MTEXT
  5
359
330
350
100
AcDbEntity
  8
中心線
100
AcDbMText
 10
295.5151584796
 20
248.7645865357
 30
0.0
 40
2.6458333333
 41
0.0
 71
     1
 72
     1
  1
10
  7
SLDTEXTSTYLE8
  0
MTEXT
  5
35A
330
350
100
AcDbEntity
  8
中心線
100
AcDbMText
 10
300.1132719093
 20
247.3054279051
 30
0.0
 40
1.3229166667
 41
0.0
 71
     1
 72
     1
  1
±5
  7
SLDTEXTSTYLE8
  0
ENDBLK
  5
352
330
350
100
AcDbEntity
  8
0
100
AcDbBlockEnd
  0
BLOCK
  5
35E
330
35D
100
AcDbEntity
  8
0
100
AcDbBlockBegin
  2
SW_NOTE_1
 70
     0
 10
0.0
 20
0.0
 30
0.0
  3
SW_NOTE_1
  1

  0
MTEXT
  5
360
330
35D
100
AcDbEntity
  8
中心線
 62
     0
100
AcDbMText
 10
0.0
 20
3.4106583948
 30
0.0
 40
2.6458333333
 41
0.0
 71
     1
 72
     1
  1
AC 入力ケーブル
  7
SLDTEXTSTYLE8
  0
MTEXT
  5
361
330
35D
100
AcDbEntity
  8
中心線
 62
     0
100
AcDbMText
 10
4.5475260417
 20
-0.1171193403
 30
0.0
 40
2.6458333333
 41
0.0
 71
     1
 72
     1
  1
品種：HHVCTF 3C×0.75m㎡
  7
SLDTEXTSTYLE8
  0
MTEXT
  5
362
330
35D
100
AcDbEntity
  8
中心線
 62
     0
100
AcDbMText
 10
4.5475260417
 20
-3.6448970755
 30
0.0
 40
2.6458333333
 41
0.0
 71
     1
 72
     1
  1
外形：φ6.86mm±0.2mm
  7
SLDTEXTSTYLE8
  0
ENDBLK
  5
35F
330
35D
100
AcDbEntity
  8
0
100
AcDbBlockEnd
  0
BLOCK
  5
368
330
367
100
AcDbEntity
  8
0
100
AcDbBlockBegin
  2
SW_NOTE_2
 70
     0
 10
0.0
 20
0.0
 30
0.0
  3
SW_NOTE_2
  1

  0
MTEXT
  5
36A
330
367
100
AcDbEntity
  8
中心線
 62
     0
100
AcDbMText
 10
0.0
 20
3.4106583948
 30
0.0
 40
2.6458333333
 41
0.0
 71
     1
 72
     1
  1
出力ケーブル
  7
SLDTEXTSTYLE8
  0
MTEXT
  5
36B
330
367
100
AcDbEntity
  8
中心線
 62
     0
100
AcDbMText
 10
4.5475260417
 20
-0.1171193403
 30
0.0
 40
2.6458333333
 41
0.0
 71
     1
 72
     1
  1
品種：HHVCTF 2C×0.75m㎡
  7
SLDTEXTSTYLE8
  0
MTEXT
  5
36C
330
367
100
AcDbEntity
  8
中心線
 62
     0
100
AcDbMText
 10
4.5475260417
 20
-3.6448970755
 30
0.0
 40
2.6458333333
 41
0.0
 71
     1
 72
     1
  1
外形：φ6.8mm±0.2mm
  7
SLDTEXTSTYLE8
  0
ENDBLK
  5
369
330
367
100
AcDbEntity
  8
0
100
AcDbBlockEnd
  0
BLOCK
  5
371
330
370
100
AcDbEntity
  8
0
100
AcDbBlockBegin
  2
SW_NOTE_3
 70
     0
 10
0.0
 20
0.0
 30
0.0
  3
SW_NOTE_3
  1

  0
LINE
  5
373
330
370
100
AcDbEntity
  8
中心線
 62
     0
100
AcDbLine
 10
-18.75
 20
0.0
 30
0.0
 11
0.0
 21
0.0
 31
0.0
  0
LINE
  5
374
330
370
100
AcDbEntity
  8
中心線
 62
     0
100
AcDbLine
 10
0.0
 20
0.0
 30
0.0
 11
-18.75
 21
0.0
 31
0.0
  0
LINE
  5
375
330
370
100
AcDbEntity
  8
中心線
 62
     0
100
AcDbLine
 10
-18.75
 20
0.0
 30
0.0
 11
0.0
 21
0.0
 31
0.0
  0
LINE
  5
376
330
370
100
AcDbEntity
  8
中心線
 62
     0
100
AcDbLine
 10
0.0
 20
0.0
 30
0.0
 11
-18.75
 21
0.0
 31
0.0
  0
LINE
  5
377
330
370
100
AcDbEntity
  8
中心線
 62
     0
100
AcDbLine
 10
-18.75
 20
0.0
 30
0.0
 11
0.0
 21
0.0
 31
0.0
  0
LINE
  5
378
330
370
100
AcDbEntity
  8
中心線
 62
     0
100
AcDbLine
 10
0.0
 20
0.0
 30
0.0
 11
-18.75
 21
0.0
 31
0.0
  0
MTEXT
  5
379
330
370
100
AcDbEntity
  8
中心線
 62
     0
100
AcDbMText
 10
-18.7432070123
 20
10.4755984862
 30
0.0
 40
2.6458333333
 41
0.0
 71
     1
 72
     1
  1
識別用ラベル
  7
SLDTEXTSTYLE8
  0
MTEXT
  5
37A
330
370
100
AcDbEntity
  8
中心線
 62
     0
100
AcDbMText
 10
-18.7432070123
 20
6.9478207511
 30
0.0
 40
2.6458333333
 41
0.0
 71
     1
 72
     1
  1
地：白色
  7
SLDTEXTSTYLE8
  0
MTEXT
  5
37B
330
370
100
AcDbEntity
  8
中心線
 62
     0
100
AcDbMText
 10
-18.7432070123
 20
3.420043016
 30
0.0
 40
2.6458333333
 41
0.0
 71
     1
 72
     1
  1
文字：黒色
  7
SLDTEXTSTYLE8
  0
ENDBLK
  5
372
330
370
100
AcDbEntity
  8
0
100
AcDbBlockEnd
  0
BLOCK
  5
37F
330
37E
100
AcDbEntity
  8
0
100
AcDbBlockBegin
  2
_DOT
 70
     0
 10
0.0
 20
0.0
 30
0.0
  3
_DOT
  1

  0
LWPOLYLINE
  5
381
330
37E
100
AcDbEntity
  8
0
  6
BYBLOCK
 62
     0
100
AcDbPolyline
 90
        2
 70
     1
 43
0.5
 10
-0.25
 20
0.0
 42
1.0
 10
0.25
 20
0.0
 42
1.0
  0
LINE
  5
382
330
37E
100
AcDbEntity
  8
0
  6
BYBLOCK
 62
     0
100
AcDbLine
 10
-0.5
 20
0.0
 30
0.0
 11
-1.0
 21
0.0
 31
0.0
  0
ENDBLK
  5
380
330
37E
100
AcDbEntity
  8
0
100
AcDbBlockEnd
  0
BLOCK
  5
388
330
387
100
AcDbEntity
  8
0
100
AcDbBlockBegin
  2
SW_NOTE_4
 70
     0
 10
0.0
 20
0.0
 30
0.0
  3
SW_NOTE_4
  1

  0
LINE
  5
38A
330
387
100
AcDbEntity
  8
中心線
 62
     0
100
AcDbLine
 10
0.0
 20
0.0
 30
0.0
 11
18.75
 21
0.0
 31
0.0
  0
LINE
  5
38B
330
387
100
AcDbEntity
  8
中心線
 62
     0
100
AcDbLine
 10
18.75
 20
0.0
 30
0.0
 11
0.0
 21
0.0
 31
0.0
  0
LINE
  5
38C
330
387
100
AcDbEntity
  8
中心線
 62
     0
100
AcDbLine
 10
0.0
 20
0.0
 30
0.0
 11
18.75
 21
0.0
 31
0.0
  0
LINE
  5
38D
330
387
100
AcDbEntity
  8
中心線
 62
     0
100
AcDbLine
 10
18.75
 20
0.0
 30
0.0
 11
0.0
 21
0.0
 31
0.0
  0
LINE
  5
38E
330
387
100
AcDbEntity
  8
中心線
 62
     0
100
AcDbLine
 10
0.0
 20
0.0
 30
0.0
 11
18.75
 21
0.0
 31
0.0
  0
LINE
  5
38F
330
387
100
AcDbEntity
  8
中心線
 62
     0
100
AcDbLine
 10
18.75
 20
0.0
 30
0.0
 11
0.0
 21
0.0
 31
0.0
  0
MTEXT
  5
390
330
387
100
AcDbEntity
  8
中心線
 62
     0
100
AcDbMText
 10
0.0693671221
 20
10.4825204522
 30
0.0
 40
2.6458333333
 41
0.0
 71
     1
 72
     1
  1
識別用ラベル
  7
SLDTEXTSTYLE8
  0
MTEXT
  5
391
330
387
100
AcDbEntity
  8
中心線
 62
     0
100
AcDbMText
 10
0.0693671221
 20
6.954742717
 30
0.0
 40
2.6458333333
 41
0.0
 71
     1
 72
     1
  1
地：黒色
  7
SLDTEXTSTYLE8
  0
MTEXT
  5
392
330
387
100
AcDbEntity
  8
中心線
 62
     0
100
AcDbMText
 10
0.0693671221
 20
3.4269649819
 30
0.0
 40
2.6458333333
 41
0.0
 71
     1
 72
     1
  1
文字：白色
  7
SLDTEXTSTYLE8
  0
ENDBLK
  5
389
330
387
100
AcDbEntity
  8
0
100
AcDbBlockEnd
  0
BLOCK
  5
49F
330
49E
100
AcDbEntity
  8
0
100
AcDbBlockBegin
  2
_D_16
 70
     0
 10
0.0
 20
0.0
 30
0.0
  3
_D_16
  1

  0
INSERT
  5
4A1
330
49E
100
AcDbEntity
  8
中心線
100
AcDbBlockReference
  2
_OPEN30
 10
90.3067713625
 20
124.3405379523
 30
0.0
 41
2.0
 42
2.0
 50
270.0
  0
INSERT
  5
4A2
330
49E
100
AcDbEntity
  8
中心線
100
AcDbBlockReference
  2
_OPEN30
 10
90.3067713625
 20
112.8405379523
 30
0.0
 41
2.0
 42
2.0
 50
90.0
  0
LINE
  5
4A3
330
49E
100
AcDbEntity
  8
中心線
100
AcDbLine
 10
130.3563644159
 20
124.3405379523
 30
0.0
 11
89.8067713625
 21
124.3405379523
 31
0.0
  0
LINE
  5
4A4
330
49E
100
AcDbEntity
  8
中心線
100
AcDbLine
 10
122.1480166536
 20
112.8405379523
 30
0.0
 11
89.8067713625
 21
112.8405379523
 31
0.0
  0
LINE
  5
4A5
330
49E
100
AcDbEntity
  8
中心線
100
AcDbLine
 10
90.3067713625
 20
124.3405379523
 30
0.0
 11
90.3067713625
 21
127.3405379523
 31
0.0
  0
LINE
  5
4A6
330
49E
100
AcDbEntity
  8
中心線
100
AcDbLine
 10
90.3067713625
 20
124.3405379523
 30
0.0
 11
90.3067713625
 21
112.8405379523
 31
0.0
  0
LINE
  5
4A7
330
49E
100
AcDbEntity
  8
中心線
100
AcDbLine
 10
90.3067713625
 20
112.8405379523
 30
0.0
 11
90.3067713625
 21
109.8405379523
 31
0.0
  0
MTEXT
  5
4A8
330
49E
100
AcDbEntity
  8
中心線
100
AcDbMText
 10
86.8961130841
 20
116.4019998946
 30
0.0
 40
2.6458333333
 41
0.0
 71
     1
 72
     1
  1
23
  7
SLDTEXTSTYLE8
 11
-7.044195017643634E-15
 21
1.0
 31
0.0
  0
ENDBLK
  5
4A0
330
49E
100
AcDbEntity
  8
0
100
AcDbBlockEnd
  0
BLOCK
  5
4AB
330
4AA
100
AcDbEntity
  8
0
100
AcDbBlockBegin
  2
_D_17
 70
     0
 10
0.0
 20
0.0
 30
0.0
  3
_D_17
  1

  0
INSERT
  5
4AD
330
4AA
100
AcDbEntity
  8
中心線
100
AcDbBlockReference
  2
_OPEN30
 10
151.3980166536
 20
141.2401631033
 30
0.0
 41
2.0
 42
2.0
  0
INSERT
  5
4AE
330
4AA
100
AcDbEntity
  8
中心線
100
AcDbBlockReference
  2
_OPEN30
 10
129.1480166536
 20
141.2401631033
 30
0.0
 41
2.0
 42
2.0
 50
180.0
  0
LINE
  5
4AF
330
4AA
100
AcDbEntity
  8
中心線
100
AcDbLine
 10
151.3980166536
 20
127.0584275217
 30
0.0
 11
151.3980166536
 21
141.7401631033
 31
0.0
  0
LINE
  5
4B0
330
4AA
100
AcDbEntity
  8
中心線
100
AcDbLine
 10
129.1480166536
 20
135.3405379523
 30
0.0
 11
129.1480166536
 21
141.7401631033
 31
0.0
  0
LINE
  5
4B1
330
4AA
100
AcDbEntity
  8
中心線
100
AcDbLine
 10
151.3980166536
 20
141.2401631033
 30
0.0
 11
129.1480166536
 21
141.2401631033
 31
0.0
  0
MTEXT
  5
4B2
330
4AA
100
AcDbEntity
  8
中心線
100
AcDbMText
 10
138.1718455733
 20
144.6508213817
 30
0.0
 40
2.6458333333
 41
0.0
 71
     1
 72
     1
  1
44.5
  7
SLDTEXTSTYLE8
  0
ENDBLK
  5
4AC
330
4AA
100
AcDbEntity
  8
0
100
AcDbBlockEnd
  0
BLOCK
  5
4B4
330
4B3
100
AcDbEntity
  8
0
100
AcDbBlockBegin
  2
SW_NOTE_5
 70
     0
 10
0.0
 20
0.0
 30
0.0
  3
SW_NOTE_5
  1

  0
LINE
  5
4B6
330
4B3
100
AcDbEntity
  8
中心線
 62
     0
100
AcDbLine
 10
-14.5047169811
 20
0.0
 30
0.0
 11
0.0
 21
0.0
 31
0.0
  0
LINE
  5
4B7
330
4B3
100
AcDbEntity
  8
中心線
 62
     0
100
AcDbLine
 10
0.0
 20
0.0
 30
0.0
 11
-14.5047169811
 21
0.0
 31
0.0
  0
LINE
  5
4B8
330
4B3
100
AcDbEntity
  8
中心線
 62
     0
100
AcDbLine
 10
-14.5047169811
 20
0.0
 30
0.0
 11
0.0
 21
0.0
 31
0.0
  0
LINE
  5
4B9
330
4B3
100
AcDbEntity
  8
中心線
 62
     0
100
AcDbLine
 10
0.0
 20
0.0
 30
0.0
 11
-14.5047169811
 21
0.0
 31
0.0
  0
LINE
  5
4BA
330
4B3
100
AcDbEntity
  8
中心線
 62
     0
100
AcDbLine
 10
-14.5047169811
 20
0.0
 30
0.0
 11
0.0
 21
0.0
 31
0.0
  0
LINE
  5
4BB
330
4B3
100
AcDbEntity
  8
中心線
 62
     0
100
AcDbLine
 10
0.0
 20
0.0
 30
0.0
 11
-14.5047169811
 21
0.0
 31
0.0
  0
MTEXT
  5
4BC
330
4B3
100
AcDbEntity
  8
中心線
 62
     0
100
AcDbMText
 10
-14.5042386677
 20
3.4024499253
 30
0.0
 40
2.6458333333
 41
0.0
 71
     1
 72
     1
  1
蓋：A5052
  7
SLDTEXTSTYLE8
  0
ENDBLK
  5
4B5
330
4B3
100
AcDbEntity
  8
0
100
AcDbBlockEnd
  0
BLOCK
  5
4C0
330
4BF
100
AcDbEntity
  8
0
100
AcDbBlockBegin
  2
SW_NOTE_6
 70
     0
 10
0.0
 20
0.0
 30
0.0
  3
SW_NOTE_6
  1

  0
LINE
  5
4C2
330
4BF
100
AcDbEntity
  8
中心線
 62
     0
100
AcDbLine
 10
0.0
 20
0.0
 30
0.0
 11
30.8962264151
 21
0.0
 31
0.0
  0
LINE
  5
4C3
330
4BF
100
AcDbEntity
  8
中心線
 62
     0
100
AcDbLine
 10
30.8962264151
 20
0.0
 30
0.0
 11
0.0
 21
0.0
 31
0.0
  0
LINE
  5
4C4
330
4BF
100
AcDbEntity
  8
中心線
 62
     0
100
AcDbLine
 10
0.0
 20
0.0
 30
0.0
 11
30.8962264151
 21
0.0
 31
0.0
  0
LINE
  5
4C5
330
4BF
100
AcDbEntity
  8
中心線
 62
     0
100
AcDbLine
 10
30.8962264151
 20
0.0
 30
0.0
 11
0.0
 21
0.0
 31
0.0
  0
LINE
  5
4C6
330
4BF
100
AcDbEntity
  8
中心線
 62
     0
100
AcDbLine
 10
0.0
 20
0.0
 30
0.0
 11
30.8962264151
 21
0.0
 31
0.0
  0
LINE
  5
4C7
330
4BF
100
AcDbEntity
  8
中心線
 62
     0
100
AcDbLine
 10
30.8962264151
 20
0.0
 30
0.0
 11
0.0
 21
0.0
 31
0.0
  0
MTEXT
  5
4C8
330
4BF
100
AcDbEntity
  8
中心線
 62
     0
100
AcDbMText
 10
0.0910761314
 20
3.4310894995
 30
0.0
 40
2.6458333333
 41
0.0
 71
     1
 72
     1
  1
Tc：Case HOT SPOT
  7
SLDTEXTSTYLE8
  0
ENDBLK
  5
4C1
330
4BF
100
AcDbEntity
  8
0
100
AcDbBlockEnd
  0
BLOCK
  5
4CD
330
4CC
100
AcDbEntity
  8
0
100
AcDbBlockBegin
  2
SW_NOTE_7
 70
     0
 10
0.0
 20
0.0
 30
0.0
  3
SW_NOTE_7
  1

  0
LINE
  5
4CF
330
4CC
100
AcDbEntity
  8
中心線
 62
     0
100
AcDbLine
 10
0.0
 20
0.0
 30
0.0
 11
14.6226415094
 21
0.0
 31
0.0
  0
LINE
  5
4D0
330
4CC
100
AcDbEntity
  8
中心線
 62
     0
100
AcDbLine
 10
14.6226415094
 20
0.0
 30
0.0
 11
0.0
 21
0.0
 31
0.0
  0
LINE
  5
4D1
330
4CC
100
AcDbEntity
  8
中心線
 62
     0
100
AcDbLine
 10
0.0
 20
0.0
 30
0.0
 11
14.6226415094
 21
0.0
 31
0.0
  0
LINE
  5
4D2
330
4CC
100
AcDbEntity
  8
中心線
 62
     0
100
AcDbLine
 10
14.6226415094
 20
0.0
 30
0.0
 11
0.0
 21
0.0
 31
0.0
  0
LINE
  5
4D3
330
4CC
100
AcDbEntity
  8
中心線
 62
     0
100
AcDbLine
 10
0.0
 20
0.0
 30
0.0
 11
14.6226415094
 21
0.0
 31
0.0
  0
LINE
  5
4D4
330
4CC
100
AcDbEntity
  8
中心線
 62
     0
100
AcDbLine
 10
14.6226415094
 20
0.0
 30
0.0
 11
0.0
 21
0.0
 31
0.0
  0
MTEXT
  5
4D5
330
4CC
100
AcDbEntity
  8
中心線
 62
     0
100
AcDbMText
 10
0.0759141248
 20
3.3737931869
 30
0.0
 40
2.6458333333
 41
0.0
 71
     1
 72
     1
  1
蓋：A5052
  7
SLDTEXTSTYLE8
  0
ENDBLK
  5
4CE
330
4CC
100
AcDbEntity
  8
0
100
AcDbBlockEnd
  0
BLOCK
  5
4D9
330
4D8
100
AcDbEntity
  8
0
100
AcDbBlockBegin
  2
SW_NOTE_8
 70
     0
 10
0.0
 20
0.0
 30
0.0
  3
SW_NOTE_8
  1

  0
LINE
  5
4DB
330
4D8
100
AcDbEntity
  8
中心線
 62
     0
100
AcDbLine
 10
0.0
 20
0.0
 30
0.0
 11
19.4575471698
 21
0.0
 31
0.0
  0
LINE
  5
4DC
330
4D8
100
AcDbEntity
  8
中心線
 62
     0
100
AcDbLine
 10
19.4575471698
 20
0.0
 30
0.0
 11
0.0
 21
0.0
 31
0.0
  0
LINE
  5
4DD
330
4D8
100
AcDbEntity
  8
中心線
 62
     0
100
AcDbLine
 10
0.0
 20
0.0
 30
0.0
 11
19.4575471698
 21
0.0
 31
0.0
  0
LINE
  5
4DE
330
4D8
100
AcDbEntity
  8
中心線
 62
     0
100
AcDbLine
 10
19.4575471698
 20
0.0
 30
0.0
 11
0.0
 21
0.0
 31
0.0
  0
LINE
  5
4DF
330
4D8
100
AcDbEntity
  8
中心線
 62
     0
100
AcDbLine
 10
0.0
 20
0.0
 30
0.0
 11
19.4575471698
 21
0.0
 31
0.0
  0
LINE
  5
4E0
330
4D8
100
AcDbEntity
  8
中心線
 62
     0
100
AcDbLine
 10
19.4575471698
 20
0.0
 30
0.0
 11
0.0
 21
0.0
 31
0.0
  0
MTEXT
  5
4E1
330
4D8
100
AcDbEntity
  8
中心線
 62
     0
100
AcDbMText
 10
0.1067636281
 20
3.4401816686
 30
0.0
 40
2.6458333333
 41
0.0
 71
     1
 72
     1
  1
ケース：A6063
  7
SLDTEXTSTYLE8
  0
ENDBLK
  5
4DA
330
4D8
100
AcDbEntity
  8
0
100
AcDbBlockEnd
  0
BLOCK
  5
4E5
330
4E4
100
AcDbEntity
  8
0
100
AcDbBlockBegin
  2
SW_NOTE_9
 70
     0
 10
0.0
 20
0.0
 30
0.0
  3
SW_NOTE_9
  1

  0
LINE
  5
4E7
330
4E4
100
AcDbEntity
  8
中心線
 62
     0
100
AcDbLine
 10
0.0
 20
0.0
 30
0.0
 11
38.0896226415
 21
0.0
 31
0.0
  0
LINE
  5
4E8
330
4E4
100
AcDbEntity
  8
中心線
 62
     0
100
AcDbLine
 10
38.0896226415
 20
0.0
 30
0.0
 11
0.0
 21
0.0
 31
0.0
  0
LINE
  5
4E9
330
4E4
100
AcDbEntity
  8
中心線
 62
     0
100
AcDbLine
 10
0.0
 20
0.0
 30
0.0
 11
38.0896226415
 21
0.0
 31
0.0
  0
LINE
  5
4EA
330
4E4
100
AcDbEntity
  8
中心線
 62
     0
100
AcDbLine
 10
38.0896226415
 20
0.0
 30
0.0
 11
0.0
 21
0.0
 31
0.0
  0
LINE
  5
4EB
330
4E4
100
AcDbEntity
  8
中心線
 62
     0
100
AcDbLine
 10
0.0
 20
0.0
 30
0.0
 11
38.0896226415
 21
0.0
 31
0.0
  0
LINE
  5
4EC
330
4E4
100
AcDbEntity
  8
中心線
 62
     0
100
AcDbLine
 10
38.0896226415
 20
0.0
 30
0.0
 11
0.0
 21
0.0
 31
0.0
  0
MTEXT
  5
4ED
330
4E4
100
AcDbEntity
  8
中心線
 62
     0
100
AcDbMText
 10
0.0490530584
 20
3.413028126
 30
0.0
 40
2.6458333333
 41
0.0
 71
     1
 72
     1
  1
ブッシュ：NYLON66+EPDM
  7
SLDTEXTSTYLE8
  0
ENDBLK
  5
4E6
330
4E4
100
AcDbEntity
  8
0
100
AcDbBlockEnd
  0
BLOCK
  5
4F1
330
4F0
100
AcDbEntity
  8
0
100
AcDbBlockBegin
  2
SW_NOTE_10
 70
     0
 10
0.0
 20
0.0
 30
0.0
  3
SW_NOTE_10
  1

  0
LINE
  5
4F3
330
4F0
100
AcDbEntity
  8
中心線
 62
     0
100
AcDbLine
 10
-19.2216981132
 20
0.0
 30
0.0
 11
0.0
 21
0.0
 31
0.0
  0
LINE
  5
4F4
330
4F0
100
AcDbEntity
  8
中心線
 62
     0
100
AcDbLine
 10
0.0
 20
0.0
 30
0.0
 11
-19.2216981132
 21
0.0
 31
0.0
  0
LINE
  5
4F5
330
4F0
100
AcDbEntity
  8
中心線
 62
     0
100
AcDbLine
 10
-19.2216981132
 20
0.0
 30
0.0
 11
0.0
 21
0.0
 31
0.0
  0
LINE
  5
4F6
330
4F0
100
AcDbEntity
  8
中心線
 62
     0
100
AcDbLine
 10
0.0
 20
0.0
 30
0.0
 11
-19.2216981132
 21
0.0
 31
0.0
  0
LINE
  5
4F7
330
4F0
100
AcDbEntity
  8
中心線
 62
     0
100
AcDbLine
 10
-19.2216981132
 20
0.0
 30
0.0
 11
0.0
 21
0.0
 31
0.0
  0
LINE
  5
4F8
330
4F0
100
AcDbEntity
  8
中心線
 62
     0
100
AcDbLine
 10
0.0
 20
0.0
 30
0.0
 11
-19.2216981132
 21
0.0
 31
0.0
  0
MTEXT
  5
4F9
330
4F0
100
AcDbEntity
  8
中心線
 62
     0
100
AcDbMText
 10
-19.1302604723
 20
3.4401816686
 30
0.0
 40
2.6458333333
 41
0.0
 71
     1
 72
     1
  1
ねじ：SUS303
  7
SLDTEXTSTYLE8
  0
ENDBLK
  5
4F2
330
4F0
100
AcDbEntity
  8
0
100
AcDbBlockEnd
  0
BLOCK
  5
4FD
330
4FC
100
AcDbEntity
  8
0
100
AcDbBlockBegin
  2
SW_NOTE_11
 70
     0
 10
0.0
 20
0.0
 30
0.0
  3
SW_NOTE_11
  1

  0
LINE
  5
4FF
330
4FC
100
AcDbEntity
  8
中心線
 62
     0
100
AcDbLine
 10
-19.2216981132
 20
0.0
 30
0.0
 11
0.0
 21
0.0
 31
0.0
  0
LINE
  5
500
330
4FC
100
AcDbEntity
  8
中心線
 62
     0
100
AcDbLine
 10
0.0
 20
0.0
 30
0.0
 11
-19.2216981132
 21
0.0
 31
0.0
  0
LINE
  5
501
330
4FC
100
AcDbEntity
  8
中心線
 62
     0
100
AcDbLine
 10
-19.2216981132
 20
0.0
 30
0.0
 11
0.0
 21
0.0
 31
0.0
  0
LINE
  5
502
330
4FC
100
AcDbEntity
  8
中心線
 62
     0
100
AcDbLine
 10
0.0
 20
0.0
 30
0.0
 11
-19.2216981132
 21
0.0
 31
0.0
  0
LINE
  5
503
330
4FC
100
AcDbEntity
  8
中心線
 62
     0
100
AcDbLine
 10
-19.2216981132
 20
0.0
 30
0.0
 11
0.0
 21
0.0
 31
0.0
  0
LINE
  5
504
330
4FC
100
AcDbEntity
  8
中心線
 62
     0
100
AcDbLine
 10
0.0
 20
0.0
 30
0.0
 11
-19.2216981132
 21
0.0
 31
0.0
  0
MTEXT
  5
505
330
4FC
100
AcDbEntity
  8
中心線
 62
     0
100
AcDbMText
 10
-19.1237442569
 20
3.4401816686
 30
0.0
 40
2.6458333333
 41
0.0
 71
     1
 72
     1
  1
ねじ：SUS303
  7
SLDTEXTSTYLE8
  0
ENDBLK
  5
4FE
330
4FC
100
AcDbEntity
  8
0
100
AcDbBlockEnd
  0
BLOCK
  5
50B
330
50A
100
AcDbEntity
  8
0
100
AcDbBlockBegin
  2
_NONE
 70
     0
 10
0.0
 20
0.0
 30
0.0
  3
_NONE
  1

  0
ENDBLK
  5
50C
330
50A
100
AcDbEntity
  8
0
100
AcDbBlockEnd
  0
BLOCK
  5
684
330
683
100
AcDbEntity
  8
0
100
AcDbBlockBegin
  2
_D_18
 70
     0
 10
0.0
 20
0.0
 30
0.0
  3
_D_18
  1

  0
INSERT
  5
686
330
683
100
AcDbEntity
  8
中心線
100
AcDbBlockReference
  2
_OPEN30
 10
25.8797669525
 20
112.8405379523
 30
0.0
 41
2.0
 42
2.0
 50
90.0
  0
INSERT
  5
687
330
683
100
AcDbEntity
  8
中心線
100
AcDbBlockReference
  2
_OPEN30
 10
25.8797669525
 20
126.8405379523
 30
0.0
 41
2.0
 42
2.0
 50
270.0
  0
LINE
  5
688
330
683
100
AcDbEntity
  8
中心線
100
AcDbLine
 10
36.5385514767
 20
112.8405379523
 30
0.0
 11
25.3797669525
 21
112.8405379523
 31
0.0
  0
LINE
  5
689
330
683
100
AcDbEntity
  8
中心線
100
AcDbLine
 10
42.5383858413
 20
126.8405379523
 30
0.0
 11
25.3797669525
 21
126.8405379523
 31
0.0
  0
LINE
  5
68A
330
683
100
AcDbEntity
  8
中心線
100
AcDbLine
 10
25.8797669525
 20
112.8405379523
 30
0.0
 11
25.8797669525
 21
109.8405379523
 31
0.0
  0
LINE
  5
68B
330
683
100
AcDbEntity
  8
中心線
100
AcDbLine
 10
25.8797669525
 20
112.8405379523
 30
0.0
 11
25.8797669525
 21
126.8405379523
 31
0.0
  0
LINE
  5
68C
330
683
100
AcDbEntity
  8
中心線
100
AcDbLine
 10
25.8797669525
 20
126.8405379523
 30
0.0
 11
25.8797669525
 21
129.8405379523
 31
0.0
  0
MTEXT
  5
68D
330
683
100
AcDbEntity
  8
中心線
100
AcDbMText
 10
22.4691086741
 20
115.8709017438
 30
0.0
 40
2.6458333333
 41
0.0
 71
     1
 72
     1
  1
28
  7
SLDTEXTSTYLE8
 11
-3.047392128993071E-15
 21
1.0
 31
0.0
  0
MTEXT
  5
68E
330
683
100
AcDbEntity
  8
中心線
100
AcDbMText
 10
23.9282673047
 20
120.4690151734
 30
0.0
 40
1.3229166667
 41
0.0
 71
     1
 72
     1
  1
±0.5
  7
SLDTEXTSTYLE8
 11
-3.047392128993071E-15
 21
1.0
 31
0.0
  0
ENDBLK
  5
685
330
683
100
AcDbEntity
  8
0
100
AcDbBlockEnd
  0
BLOCK
  5
692
330
691
100
AcDbEntity
  8
0
100
AcDbBlockBegin
  2
_D_19
 70
     0
 10
0.0
 20
0.0
 30
0.0
  3
_D_19
  1

  0
INSERT
  5
694
330
691
100
AcDbEntity
  8
中心線
100
AcDbBlockReference
  2
_OPEN30
 10
20.8700175194
 20
112.8405379523
 30
0.0
 41
2.0
 42
2.0
 50
270.0
  0
INSERT
  5
695
330
691
100
AcDbEntity
  8
中心線
100
AcDbBlockReference
  2
_OPEN30
 10
20.8700175194
 20
134.8405379523
 30
0.0
 41
2.0
 42
2.0
 50
90.0
  0
LINE
  5
696
330
691
100
AcDbEntity
  8
中心線
100
AcDbLine
 10
36.5385514767
 20
112.8405379523
 30
0.0
 11
20.3700175194
 21
112.8405379523
 31
0.0
  0
LINE
  5
697
330
691
100
AcDbEntity
  8
中心線
100
AcDbLine
 10
33.0385514767
 20
134.8405379523
 30
0.0
 11
20.3700175194
 21
134.8405379523
 31
0.0
  0
LINE
  5
698
330
691
100
AcDbEntity
  8
中心線
100
AcDbLine
 10
20.8700175194
 20
112.8405379523
 30
0.0
 11
20.8700175194
 21
134.8405379523
 31
0.0
  0
MTEXT
  5
699
330
691
100
AcDbEntity
  8
中心線
100
AcDbMText
 10
17.459359241
 20
119.0292220386
 30
0.0
 40
2.6458333333
 41
0.0
 71
     1
 72
     1
  1
44
  7
SLDTEXTSTYLE8
 11
-3.491481338843133E-15
 21
1.0
 31
0.0
  0
MTEXT
  5
69A
330
691
100
AcDbEntity
  8
中心線
100
AcDbMText
 10
18.9185178715
 20
123.6273354682
 30
0.0
 40
1.3229166667
 41
0.0
 71
     1
 72
     1
  1
±0.5
  7
SLDTEXTSTYLE8
 11
-3.491481338843133E-15
 21
1.0
 31
0.0
  0
ENDBLK
  5
693
330
691
100
AcDbEntity
  8
0
100
AcDbBlockEnd
  0
BLOCK
  5
69D
330
69C
100
AcDbEntity
  8
0
100
AcDbBlockBegin
  2
_D_20
 70
     0
 10
0.0
 20
0.0
 30
0.0
  3
_D_20
  1

  0
INSERT
  5
69F
330
69C
100
AcDbEntity
  8
中心線
100
AcDbBlockReference
  2
_OPEN30
 10
32.0385514767
 20
102.8405379523
 30
0.0
 41
2.0
 42
2.0
 50
180.0
  0
INSERT
  5
6A0
330
69C
100
AcDbEntity
  8
中心線
100
AcDbBlockReference
  2
_OPEN30
 10
69.5385514767
 20
102.8405379523
 30
0.0
 41
2.0
 42
2.0
  0
LINE
  5
6A1
330
69C
100
AcDbEntity
  8
中心線
100
AcDbLine
 10
32.0385514767
 20
114.8405379523
 30
0.0
 11
32.0385514767
 21
102.3405379523
 31
0.0
  0
LINE
  5
6A2
330
69C
100
AcDbEntity
  8
中心線
100
AcDbLine
 10
69.5385514767
 20
114.8405379523
 30
0.0
 11
69.5385514767
 21
102.3405379523
 31
0.0
  0
LINE
  5
6A3
330
69C
100
AcDbEntity
  8
中心線
100
AcDbLine
 10
32.0385514767
 20
102.8405379523
 30
0.0
 11
69.5385514767
 21
102.8405379523
 31
0.0
  0
MTEXT
  5
6A4
330
69C
100
AcDbEntity
  8
中心線
100
AcDbMText
 10
46.7411994734
 20
106.2511962307
 30
0.0
 40
2.6458333333
 41
0.0
 71
     1
 72
     1
  1
75
  7
SLDTEXTSTYLE8
  0
MTEXT
  5
6A5
330
69C
100
AcDbEntity
  8
中心線
100
AcDbMText
 10
51.339312903
 20
104.7920376001
 30
0.0
 40
1.3229166667
 41
0.0
 71
     1
 72
     1
  1
±0.5
  7
SLDTEXTSTYLE8
  0
ENDBLK
  5
69E
330
69C
100
AcDbEntity
  8
0
100
AcDbBlockEnd
  0
BLOCK
  5
6A8
330
6A7
100
AcDbEntity
  8
0
100
AcDbBlockBegin
  2
_D_21
 70
     0
 10
0.0
 20
0.0
 30
0.0
  3
_D_21
  1

  0
INSERT
  5
6AA
330
6A7
100
AcDbEntity
  8
中心線
100
AcDbBlockReference
  2
_OPEN30
 10
75.5416308985
 20
113.8405379523
 30
0.0
 41
2.0
 42
2.0
 50
270.0
  0
INSERT
  5
6AB
330
6A7
100
AcDbEntity
  8
中心線
100
AcDbBlockReference
  2
_OPEN30
 10
75.5416308985
 20
134.8405379523
 30
0.0
 41
2.0
 42
2.0
 50
90.0
  0
LINE
  5
6AC
330
6A7
100
AcDbEntity
  8
中心線
100
AcDbLine
 10
68.5385514767
 20
113.8405379523
 30
0.0
 11
76.0416308985
 21
113.8405379523
 31
0.0
  0
LINE
  5
6AD
330
6A7
100
AcDbEntity
  8
中心線
100
AcDbLine
 10
68.5385514767
 20
134.8405379523
 30
0.0
 11
76.0416308985
 21
134.8405379523
 31
0.0
  0
LINE
  5
6AE
330
6A7
100
AcDbEntity
  8
中心線
100
AcDbLine
 10
75.5416308985
 20
113.8405379523
 30
0.0
 11
75.5416308985
 21
134.8405379523
 31
0.0
  0
MTEXT
  5
6AF
330
6A7
100
AcDbEntity
  8
中心線
100
AcDbMText
 10
72.1309726201
 20
120.2272055987
 30
0.0
 40
2.6458333333
 41
0.0
 71
     1
 72
     1
  1
42
  7
SLDTEXTSTYLE8
 11
-3.491481338843133E-15
 21
1.0
 31
0.0
  0
MTEXT
  5
6B0
330
6A7
100
AcDbEntity
  8
中心線
100
AcDbMText
 10
73.5901312506
 20
124.8253190283
 30
0.0
 40
1.3229166667
 41
0.0
 71
     1
 72
     1
  1
±0.5
  7
SLDTEXTSTYLE8
 11
-3.491481338843133E-15
 21
1.0
 31
0.0
  0
ENDBLK
  5
6A9
330
6A7
100
AcDbEntity
  8
0
100
AcDbBlockEnd
  0
BLOCK
  5
6B2
330
6B1
100
AcDbEntity
  8
0
100
AcDbBlockBegin
  2
SW_NOTE_12
 70
     0
 10
0.0
 20
0.0
 30
0.0
  3
SW_NOTE_12
  1

  0
LINE
  5
6B4
330
6B1
100
AcDbEntity
  8
中心線
 62
     0
100
AcDbLine
 10
0.0
 20
0.0
 30
0.0
 11
37.0283018868
 21
0.0
 31
0.0
  0
LINE
  5
6B5
330
6B1
100
AcDbEntity
  8
中心線
 62
     0
100
AcDbLine
 10
37.0283018868
 20
0.0
 30
0.0
 11
0.0
 21
0.0
 31
0.0
  0
LINE
  5
6B6
330
6B1
100
AcDbEntity
  8
中心線
 62
     0
100
AcDbLine
 10
0.0
 20
0.0
 30
0.0
 11
37.0283018868
 21
0.0
 31
0.0
  0
LINE
  5
6B7
330
6B1
100
AcDbEntity
  8
中心線
 62
     0
100
AcDbLine
 10
37.0283018868
 20
0.0
 30
0.0
 11
0.0
 21
0.0
 31
0.0
  0
LINE
  5
6B8
330
6B1
100
AcDbEntity
  8
中心線
 62
     0
100
AcDbLine
 10
0.0
 20
0.0
 30
0.0
 11
37.0283018868
 21
0.0
 31
0.0
  0
LINE
  5
6B9
330
6B1
100
AcDbEntity
  8
中心線
 62
     0
100
AcDbLine
 10
37.0283018868
 20
0.0
 30
0.0
 11
0.0
 21
0.0
 31
0.0
  0
MTEXT
  5
6BA
330
6B1
100
AcDbEntity
  8
中心線
 62
     0
100
AcDbMText
 10
0.0945608185
 20
3.4234796223
 30
0.0
 40
2.6458333333
 41
0.0
 71
     1
 72
     1
  1
ブッシュ：NYLON66+EPDM
  7
SLDTEXTSTYLE8
  0
ENDBLK
  5
6B3
330
6B1
100
AcDbEntity
  8
0
100
AcDbBlockEnd
  0
BLOCK
  5
6F1
330
6F0
100
AcDbEntity
  8
0
100
AcDbBlockBegin
  2
SW_HATCH_0
 70
     0
 10
0.0
 20
0.0
 30
0.0
  3
SW_HATCH_0
  1

  0
LINE
  5
6F3
330
6F0
100
AcDbEntity
  8
0
  6
CONTINUOUS
 62
     0
100
AcDbLine
 10
0.0
 20
0.0
 30
0.0
 11
-1.3011463728
 21
-1.0917914415
 31
0.0
  0
LINE
  5
6F4
330
6F0
100
AcDbEntity
  8
0
  6
CONTINUOUS
 62
     0
100
AcDbLine
 10
1.6464743834
 20
0.0
 30
0.0
 11
-1.2168089077
 21
-2.4025799535
 31
0.0
  0
LINE
  5
6F5
330
6F0
100
AcDbEntity
  8
0
  6
CONTINUOUS
 62
     0
100
AcDbLine
 10
3.2929487669
 20
0.0
 30
0.0
 11
-1.0646023871
 21
-3.6564195661
 31
0.0
  0
LINE
  5
6F6
330
6F0
100
AcDbEntity
  8
0
  6
CONTINUOUS
 62
     0
100
AcDbLine
 10
4.9394231503
 20
0.0
 30
0.0
 11
0.1724087799
 21
-4.0
 31
0.0
  0
LINE
  5
6F7
330
6F0
100
AcDbEntity
  8
0
  6
CONTINUOUS
 62
     0
100
AcDbLine
 10
6.5858975337
 20
0.0
 30
0.0
 11
1.8188831633
 21
-4.0
 31
0.0
  0
LINE
  5
6F8
330
6F0
100
AcDbEntity
  8
0
  6
CONTINUOUS
 62
     0
100
AcDbLine
 10
8.2323719171
 20
0.0
 30
0.0
 11
3.4653575468
 21
-4.0
 31
0.0
  0
LINE
  5
6F9
330
6F0
100
AcDbEntity
  8
0
  6
CONTINUOUS
 62
     0
100
AcDbLine
 10
9.8788463006
 20
0.0
 30
0.0
 11
5.1118319302
 21
-4.0
 31
0.0
  0
LINE
  5
6FA
330
6F0
100
AcDbEntity
  8
0
  6
CONTINUOUS
 62
     0
100
AcDbLine
 10
11.525320684
 20
0.0
 30
0.0
 11
6.7583063136
 21
-4.0
 31
0.0
  0
LINE
  5
6FB
330
6F0
100
AcDbEntity
  8
0
  6
CONTINUOUS
 62
     0
100
AcDbLine
 10
13.1717950674
 20
0.0
 30
0.0
 11
8.404780697
 21
-4.0
 31
0.0
  0
LINE
  5
6FC
330
6F0
100
AcDbEntity
  8
0
  6
CONTINUOUS
 62
     0
100
AcDbLine
 10
14.8182694508
 20
0.0
 30
0.0
 11
10.0512550805
 21
-4.0
 31
0.0
  0
LINE
  5
6FD
330
6F0
100
AcDbEntity
  8
0
  6
CONTINUOUS
 62
     0
100
AcDbLine
 10
16.4647438343
 20
0.0
 30
0.0
 11
13.2231106133
 21
-2.7200532401
 31
0.0
  0
LINE
  5
6FE
330
6F0
100
AcDbEntity
  8
0
  6
CONTINUOUS
 62
     0
100
AcDbLine
 10
18.1112182177
 20
0.0
 30
0.0
 11
13.3442038473
 21
-4.0
 31
0.0
  0
LINE
  5
6FF
330
6F0
100
AcDbEntity
  8
0
  6
CONTINUOUS
 62
     0
100
AcDbLine
 10
19.7576926011
 20
0.0
 30
0.0
 11
14.9906782308
 21
-4.0
 31
0.0
  0
LINE
  5
700
330
6F0
100
AcDbEntity
  8
0
  6
CONTINUOUS
 62
     0
100
AcDbLine
 10
21.4041669846
 20
0.0
 30
0.0
 11
16.6371526142
 21
-4.0
 31
0.0
  0
LINE
  5
701
330
6F0
100
AcDbEntity
  8
0
  6
CONTINUOUS
 62
     0
100
AcDbLine
 10
22.016651813
 20
-0.8676202542
 30
0.0
 11
18.2836269976
 21
-4.0
 31
0.0
  0
LINE
  5
702
330
6F0
100
AcDbEntity
  8
0
  6
CONTINUOUS
 62
     0
100
AcDbLine
 10
22.4112793934
 20
-1.918044445
 30
0.0
 11
19.930101381
 21
-4.0
 31
0.0
  0
LINE
  5
703
330
6F0
100
AcDbEntity
  8
0
  6
CONTINUOUS
 62
     0
100
AcDbLine
 10
23.0387337202
 20
-2.7731037986
 30
0.0
 11
21.5765757645
 21
-4.0
 31
0.0
  0
LINE
  5
704
330
6F0
100
AcDbEntity
  8
0
  6
CONTINUOUS
 62
     0
100
AcDbLine
 10
23.8862178718
 20
-3.4435362075
 30
0.0
 11
23.2230501479
 21
-4.0
 31
0.0
  0
LINE
  5
705
330
6F0
100
AcDbEntity
  8
0
  6
CONTINUOUS
 62
     0
100
AcDbLine
 10
24.9982269231
 20
-3.8920058705
 30
0.0
 11
24.8695245313
 21
-4.0
 31
0.0
  0
LINE
  5
706
330
6F0
100
AcDbEntity
  8
0
  6
CONTINUOUS
 62
     0
100
AcDbLine
 10
11.9919957915
 20
-3.753081233
 30
0.0
 11
11.6977294639
 21
-4.0
 31
0.0
  0
ENDBLK
  5
6F2
330
6F0
100
AcDbEntity
  8
0
100
AcDbBlockEnd
  0
BLOCK
  5
70B
330
70A
100
AcDbEntity
  8
0
100
AcDbBlockBegin
  2
_D_22
 70
     0
 10
0.0
 20
0.0
 30
0.0
  3
_D_22
  1

  0
INSERT
  5
70D
330
70A
100
AcDbEntity
  8
中心線
100
AcDbBlockReference
  2
_OPEN30
 10
322.4366751181
 20
125.4830586749
 30
0.0
 41
2.0
 42
2.0
 50
270.0
  0
INSERT
  5
70E
330
70A
100
AcDbEntity
  8
中心線
100
AcDbBlockReference
  2
_OPEN30
 10
322.4366751181
 20
121.4830586749
 30
0.0
 41
2.0
 42
2.0
 50
90.0
  0
LINE
  5
70F
330
70A
100
AcDbEntity
  8
中心線
100
AcDbLine
 10
326.680829429
 20
125.4830586749
 30
0.0
 11
321.9366751181
 21
125.4830586749
 31
0.0
  0
LINE
  5
710
330
70A
100
AcDbEntity
  8
中心線
100
AcDbLine
 10
326.9932303062
 20
121.4830586749
 30
0.0
 11
321.9366751181
 21
121.4830586749
 31
0.0
  0
LINE
  5
711
330
70A
100
AcDbEntity
  8
中心線
100
AcDbLine
 10
322.4366751181
 20
125.4830586749
 30
0.0
 11
322.4366751181
 21
128.4830586749
 31
0.0
  0
LINE
  5
712
330
70A
100
AcDbEntity
  8
中心線
100
AcDbLine
 10
322.4366751181
 20
125.4830586749
 30
0.0
 11
322.4366751181
 21
121.4830586749
 31
0.0
  0
LINE
  5
713
330
70A
100
AcDbEntity
  8
中心線
100
AcDbLine
 10
322.4366751181
 20
121.4830586749
 30
0.0
 11
322.4366751181
 21
110.1881958735
 31
0.0
  0
MTEXT
  5
714
330
70A
100
AcDbEntity
  8
中心線
100
AcDbMText
 10
319.0260168397
 20
111.7756958735
 30
0.0
 40
2.6458333333
 41
0.0
 71
     1
 72
     1
  1
2
  7
SLDTEXTSTYLE8
 11
-7.044195017643634E-15
 21
1.0
 31
0.0
  0
MTEXT
  5
715
330
70A
100
AcDbEntity
  8
中心線
100
AcDbMText
 10
320.4851754702
 20
114.6066567231
 30
0.0
 40
1.3229166667
 41
0.0
 71
     1
 72
     1
  1
±0.8
  7
SLDTEXTSTYLE8
 11
-7.044195017643634E-15
 21
1.0
 31
0.0
  0
ENDBLK
  5
70C
330
70A
100
AcDbEntity
  8
0
100
AcDbBlockEnd
  0
BLOCK
  5
717
330
716
100
AcDbEntity
  8
0
100
AcDbBlockBegin
  2
SW_NOTE_13
 70
     0
 10
0.0
 20
0.0
 30
0.0
  3
SW_NOTE_13
  1

  0
MTEXT
  5
719
330
716
100
AcDbEntity
  8
中心線
 62
     0
100
AcDbMText
 10
9.8391927083
 20
4.7749217527
 30
0.0
 40
3.7041666667
 41
0.0
 71
     2
 72
     1
  1
詳細図 A
  7
SLDTEXTSTYLE8
  0
MTEXT
  5
71A
330
716
100
AcDbEntity
  8
中心線
 62
     0
100
AcDbMText
 10
10.6310440843
 20
-0.1639670765
 30
0.0
 40
3.7041666667
 41
0.0
 71
     2
 72
     1
  1
ｽｹｰﾙ 2 : 1
  7
SLDTEXTSTYLE7
  0
ENDBLK
  5
718
330
716
100
AcDbEntity
  8
0
100
AcDbBlockEnd
  0
BLOCK
  5
71D
330
71C
100
AcDbEntity
  8
0
100
AcDbBlockBegin
  2
SW_NOTE_14
 70
     0
 10
0.0
 20
0.0
 30
0.0
  3
SW_NOTE_14
  1

  0
LINE
  5
71F
330
71C
100
AcDbEntity
  8
中心線
 62
     0
100
AcDbLine
 10
0.0
 20
0.0
 30
0.0
 11
18.5141509434
 21
0.0
 31
0.0
  0
LINE
  5
720
330
71C
100
AcDbEntity
  8
中心線
 62
     0
100
AcDbLine
 10
18.5141509434
 20
0.0
 30
0.0
 11
0.0
 21
0.0
 31
0.0
  0
LINE
  5
721
330
71C
100
AcDbEntity
  8
中心線
 62
     0
100
AcDbLine
 10
0.0
 20
0.0
 30
0.0
 11
18.5141509434
 21
0.0
 31
0.0
  0
LINE
  5
722
330
71C
100
AcDbEntity
  8
中心線
 62
     0
100
AcDbLine
 10
18.5141509434
 20
0.0
 30
0.0
 11
0.0
 21
0.0
 31
0.0
  0
LINE
  5
723
330
71C
100
AcDbEntity
  8
中心線
 62
     0
100
AcDbLine
 10
0.0
 20
0.0
 30
0.0
 11
18.5141509434
 21
0.0
 31
0.0
  0
LINE
  5
724
330
71C
100
AcDbEntity
  8
中心線
 62
     0
100
AcDbLine
 10
18.5141509434
 20
0.0
 30
0.0
 11
0.0
 21
0.0
 31
0.0
  0
MTEXT
  5
725
330
71C
100
AcDbEntity
  8
中心線
 62
     0
100
AcDbMText
 10
0.0228316435
 20
3.4260572154
 30
0.0
 40
2.6458333333
 41
0.0
 71
     1
 72
     1
  1
蓋の曲げR部
  7
SLDTEXTSTYLE8
  0
ENDBLK
  5
71E
330
71C
100
AcDbEntity
  8
0
100
AcDbBlockEnd
  0
BLOCK
  5
729
330
728
100
AcDbEntity
  8
0
100
AcDbBlockBegin
  2
SW_NOTE_15
 70
     0
 10
0.0
 20
0.0
 30
0.0
  3
SW_NOTE_15
  1

  0
LINE
  5
72B
330
728
100
AcDbEntity
  8
中心線
 62
     0
100
AcDbLine
 10
-10.4952830189
 20
0.0
 30
0.0
 11
0.0
 21
0.0
 31
0.0
  0
LINE
  5
72C
330
728
100
AcDbEntity
  8
中心線
 62
     0
100
AcDbLine
 10
0.0
 20
0.0
 30
0.0
 11
-10.4952830189
 21
0.0
 31
0.0
  0
LINE
  5
72D
330
728
100
AcDbEntity
  8
中心線
 62
     0
100
AcDbLine
 10
-10.4952830189
 20
0.0
 30
0.0
 11
0.0
 21
0.0
 31
0.0
  0
LINE
  5
72E
330
728
100
AcDbEntity
  8
中心線
 62
     0
100
AcDbLine
 10
0.0
 20
0.0
 30
0.0
 11
-10.4952830189
 21
0.0
 31
0.0
  0
LINE
  5
72F
330
728
100
AcDbEntity
  8
中心線
 62
     0
100
AcDbLine
 10
-10.4952830189
 20
0.0
 30
0.0
 11
0.0
 21
0.0
 31
0.0
  0
LINE
  5
730
330
728
100
AcDbEntity
  8
中心線
 62
     0
100
AcDbLine
 10
0.0
 20
0.0
 30
0.0
 11
-10.4952830189
 21
0.0
 31
0.0
  0
MTEXT
  5
731
330
728
100
AcDbEntity
  8
中心線
 62
     0
100
AcDbMText
 10
-10.4271961583
 20
3.4326207265
 30
0.0
 40
2.6458333333
 41
0.0
 71
     1
 72
     1
  1
パッキン
  7
SLDTEXTSTYLE8
  0
ENDBLK
  5
72A
330
728
100
AcDbEntity
  8
0
100
AcDbBlockEnd
  0
BLOCK
  5
735
330
734
100
AcDbEntity
  8
0
100
AcDbBlockBegin
  2
SW_NOTE_16
 70
     0
 10
0.0
 20
0.0
 30
0.0
  3
SW_NOTE_16
  1

  0
LINE
  5
737
330
734
100
AcDbEntity
  8
中心線
 62
     0
100
AcDbLine
 10
-14.7405660377
 20
0.0
 30
0.0
 11
0.0
 21
0.0
 31
0.0
  0
LINE
  5
738
330
734
100
AcDbEntity
  8
中心線
 62
     0
100
AcDbLine
 10
0.0
 20
0.0
 30
0.0
 11
-14.7405660377
 21
0.0
 31
0.0
  0
LINE
  5
739
330
734
100
AcDbEntity
  8
中心線
 62
     0
100
AcDbLine
 10
-14.7405660377
 20
0.0
 30
0.0
 11
0.0
 21
0.0
 31
0.0
  0
LINE
  5
73A
330
734
100
AcDbEntity
  8
中心線
 62
     0
100
AcDbLine
 10
0.0
 20
0.0
 30
0.0
 11
-14.7405660377
 21
0.0
 31
0.0
  0
LINE
  5
73B
330
734
100
AcDbEntity
  8
中心線
 62
     0
100
AcDbLine
 10
-14.7405660377
 20
0.0
 30
0.0
 11
0.0
 21
0.0
 31
0.0
  0
LINE
  5
73C
330
734
100
AcDbEntity
  8
中心線
 62
     0
100
AcDbLine
 10
0.0
 20
0.0
 30
0.0
 11
-14.7405660377
 21
0.0
 31
0.0
  0
MTEXT
  5
73D
330
734
100
AcDbEntity
  8
中心線
 62
     0
100
AcDbMText
 10
-14.67126491
 20
3.3841521328
 30
0.0
 40
2.6458333333
 41
0.0
 71
     1
 72
     1
  1
アルミ本体
  7
SLDTEXTSTYLE8
  0
ENDBLK
  5
736
330
734
100
AcDbEntity
  8
0
100
AcDbBlockEnd
  0
BLOCK
  5
741
330
740
100
AcDbEntity
  8
0
100
AcDbBlockBegin
  2
SW_NOTE_17
 70
     0
 10
0.0
 20
0.0
 30
0.0
  3
SW_NOTE_17
  1

  0
LINE
  5
743
330
740
100
AcDbEntity
  8
中心線
 62
     0
100
AcDbLine
 10
-63.3254716981
 20
0.0
 30
0.0
 11
0.0
 21
0.0
 31
0.0
  0
LINE
  5
744
330
740
100
AcDbEntity
  8
中心線
 62
     0
100
AcDbLine
 10
0.0
 20
0.0
 30
0.0
 11
-63.3254716981
 21
0.0
 31
0.0
  0
LINE
  5
745
330
740
100
AcDbEntity
  8
中心線
 62
     0
100
AcDbLine
 10
-63.3254716981
 20
0.0
 30
0.0
 11
0.0
 21
0.0
 31
0.0
  0
LINE
  5
746
330
740
100
AcDbEntity
  8
中心線
 62
     0
100
AcDbLine
 10
0.0
 20
0.0
 30
0.0
 11
-63.3254716981
 21
0.0
 31
0.0
  0
LINE
  5
747
330
740
100
AcDbEntity
  8
中心線
 62
     0
100
AcDbLine
 10
-63.3254716981
 20
0.0
 30
0.0
 11
0.0
 21
0.0
 31
0.0
  0
LINE
  5
748
330
740
100
AcDbEntity
  8
中心線
 62
     0
100
AcDbLine
 10
0.0
 20
0.0
 30
0.0
 11
-63.3254716981
 21
0.0
 31
0.0
  0
MTEXT
  5
749
330
740
100
AcDbEntity
  8
中心線
 62
     0
100
AcDbMText
 10
-63.2235748151
 20
6.9035343422
 30
0.0
 40
2.6458333333
 41
0.0
 71
     1
 72
     1
  1
本体の底面部（斜線部）は
  7
SLDTEXTSTYLE8
  0
MTEXT
  5
74A
330
740
100
AcDbEntity
  8
中心線
 62
     0
100
AcDbMText
 10
-63.2235748151
 20
3.375756607
 30
0.0
 40
2.6458333333
 41
0.0
 71
     1
 72
     1
  1
セット取り付け時に2mmの空間が発生します。
  7
SLDTEXTSTYLE8
  0
ENDBLK
  5
742
330
740
100
AcDbEntity
  8
0
100
AcDbBlockEnd
  0
BLOCK
  5
785
330
784
100
AcDbEntity
  8
0
100
AcDbBlockBegin
  2
_OPEN
 70
     0
 10
0.0
 20
0.0
 30
0.0
  3
_OPEN
  1

  0
LINE
  5
786
330
784
100
AcDbEntity
  8
0
 62
     0
100
AcDbLine
 10
-1.0
 20
0.1666666666666666
 30
0.0
 11
0.0
 21
0.0
 31
0.0
  0
LINE
  5
787
330
784
100
AcDbEntity
  8
0
 62
     0
100
AcDbLine
 10
-1.0
 20
-0.1666666666666666
 30
0.0
 11
0.0
 21
0.0
 31
0.0
  0
LINE
  5
788
330
784
100
AcDbEntity
  8
0
 62
     0
100
AcDbLine
 10
0.0
 20
0.0
 30
0.0
 11
-1.0
 21
0.0
 31
0.0
  0
ENDBLK
  5
789
330
784
100
AcDbEntity
  8
0
100
AcDbBlockEnd
  0
BLOCK
  5
7D7
330
7D6
100
AcDbEntity
  8
0
100
AcDbBlockBegin
  2
*D49
 70
     1
 10
0.0
 20
0.0
 30
0.0
  3
*D49
  1

  0
LINE
  5
7D8
330
7D6
100
AcDbEntity
  8
20_DIM
 62
     0
100
AcDbLine
 10
140.239677188998
 20
85.74548763327766
 30
0.0
 11
140.239677188998
 21
28.2160484029082
 31
0.0
  0
LINE
  5
7D9
330
7D6
100
AcDbEntity
  8
20_DIM
 62
     0
100
AcDbLine
 10
720.2396771889998
 20
85.74548763327766
 30
0.0
 11
720.2396771889998
 21
28.2160484029082
 31
0.0
  0
LINE
  5
7DA
330
7D6
100
AcDbEntity
  8
20_DIM
 62
     0
100
AcDbLine
 10
148.239677188998
 20
29.2160484029082
 30
0.0
 11
712.2396771889998
 21
29.2160484029082
 31
0.0
  0
INSERT
  5
7DB
330
7D6
100
AcDbEntity
  8
20_DIM
 62
     0
100
AcDbBlockReference
  2
_OPEN
 10
140.239677188998
 20
29.2160484029082
 30
0.0
 41
8.0
 42
8.0
 43
8.0
 50
180.0
  0
INSERT
  5
7DC
330
7D6
100
AcDbEntity
  8
20_DIM
 62
     0
100
AcDbBlockReference
  2
_OPEN
 10
720.2396771889998
 20
29.2160484029082
 30
0.0
 41
8.0
 42
8.0
 43
8.0
  0
MTEXT
  5
7DD
330
7D6
100
AcDbEntity
  8
20_DIM
 62
     0
100
AcDbMText
 10
421.2396771889998
 20
34.2360484029082
 30
0.0
 40
8.0
 41
0.0
 71
     5
 72
     1
  1
580±1.5
  0
POINT
  5
7DE
330
7D6
100
AcDbEntity
  8
DEFPOINTS
 62
     0
100
AcDbPoint
 10
140.239677188998
 20
88.74548763327766
 30
0.0
  0
POINT
  5
7DF
330
7D6
100
AcDbEntity
  8
DEFPOINTS
 62
     0
100
AcDbPoint
 10
720.2396771889998
 20
88.74548763327766
 30
0.0
  0
POINT
  5
7E0
330
7D6
100
AcDbEntity
  8
DEFPOINTS
 62
     0
100
AcDbPoint
 10
720.2396771889998
 20
29.2160484029082
 30
0.0
  0
ENDBLK
  5
7E1
330
7D6
100
AcDbEntity
  8
0
100
AcDbBlockEnd
  0
BLOCK
  5
7E4
330
7E3
100
AcDbEntity
  8
0
100
AcDbBlockBegin
  2
*D50
 70
     1
 10
0.0
 20
0.0
 30
0.0
  3
*D50
  1

  0
LINE
  5
7E5
330
7E3
100
AcDbEntity
  8
20_DIM
 62
     0
100
AcDbLine
 10
240.896456115066
 20
118.7454876332777
 30
0.0
 11
240.896456115066
 21
177.0849162047081
 31
0.0
  0
LINE
  5
7E6
330
7E3
100
AcDbEntity
  8
20_DIM
 62
     0
100
AcDbLine
 10
240.896456115066
 20
110.7454876332777
 30
0.0
 11
240.896456115066
 21
95.74548763327766
 31
0.0
  0
INSERT
  5
7E7
330
7E3
100
AcDbEntity
  8
20_DIM
 62
     0
100
AcDbBlockReference
  2
_OPEN
 10
240.896456115066
 20
118.7454876332777
 30
0.0
 41
8.0
 42
8.0
 43
8.0
 50
90.0
  0
INSERT
  5
7E8
330
7E3
100
AcDbEntity
  8
20_DIM
 62
     0
100
AcDbBlockReference
  2
_OPEN
 10
240.896456115066
 20
87.74548763327766
 30
0.0
 41
8.0
 42
8.0
 43
8.0
 50
270.0
  0
MTEXT
  5
7E9
330
7E3
100
AcDbEntity
  8
20_DIM
 62
     0
100
AcDbMText
 10
234.692456115066
 20
153.1169162047081
 30
0.0
 40
8.0
 41
0.0
 71
     5
 72
     1
  1
φ31%%p0.5
 11
0.0
 21
1.0
 31
0.0
  0
POINT
  5
7EA
330
7E3
100
AcDbEntity
  8
DEFPOINTS
 62
     0
100
AcDbPoint
 10
160.2396771889998
 20
118.7454876332777
 30
0.0
  0
POINT
  5
7EB
330
7E3
100
AcDbEntity
  8
DEFPOINTS
 62
     0
100
AcDbPoint
 10
160.2396771889998
 20
87.74548763327766
 30
0.0
  0
POINT
  5
7EC
330
7E3
100
AcDbEntity
  8
DEFPOINTS
 62
     0
100
AcDbPoint
 10
240.896456115066
 20
87.74548763327766
 30
0.0
  0
ENDBLK
  5
7ED
330
7E3
100
AcDbEntity
  8
0
100
AcDbBlockEnd
  0
BLOCK
  5
7F0
330
7EF
100
AcDbEntity
  8
0
100
AcDbBlockBegin
  2
*D51
 70
     1
 10
0.0
 20
0.0
 30
0.0
  3
*D51
  1

  0
LINE
  5
7F1
330
7EF
100
AcDbEntity
  8
20_DIM
 62
     0
100
AcDbLine
 10
146.2396771889998
 20
119.7454876332777
 30
0.0
 11
119.8512600820086
 21
119.7454876332777
 31
0.0
  0
LINE
  5
7F2
330
7EF
100
AcDbEntity
  8
20_DIM
 62
     0
100
AcDbLine
 10
146.2396771889998
 20
86.74548763327766
 30
0.0
 11
119.8512600820086
 21
86.74548763327766
 31
0.0
  0
LINE
  5
7F3
330
7EF
100
AcDbEntity
  8
20_DIM
 62
     0
100
AcDbLine
 10
120.8512600820086
 20
119.7454876332777
 30
0.0
 11
120.8512600820086
 21
178.0849162047081
 31
0.0
  0
LINE
  5
7F4
330
7EF
100
AcDbEntity
  8
20_DIM
 62
     0
100
AcDbLine
 10
120.8512600820086
 20
111.7454876332777
 30
0.0
 11
120.8512600820086
 21
94.74548763327766
 31
0.0
  0
INSERT
  5
7F5
330
7EF
100
AcDbEntity
  8
20_DIM
 62
     0
100
AcDbBlockReference
  2
_OPEN
 10
120.8512600820086
 20
119.7454876332777
 30
0.0
 41
8.0
 42
8.0
 43
8.0
 50
90.0
  0
INSERT
  5
7F6
330
7EF
100
AcDbEntity
  8
20_DIM
 62
     0
100
AcDbBlockReference
  2
_OPEN
 10
120.8512600820086
 20
86.74548763327766
 30
0.0
 41
8.0
 42
8.0
 43
8.0
 50
270.0
  0
MTEXT
  5
7F7
330
7EF
100
AcDbEntity
  8
20_DIM
 62
     0
100
AcDbMText
 10
114.6472600820086
 20
154.1169162047081
 30
0.0
 40
8.0
 41
0.0
 71
     5
 72
     1
  1
φ33%%p0.3
 11
0.0
 21
1.0
 31
0.0
  0
POINT
  5
7F8
330
7EF
100
AcDbEntity
  8
DEFPOINTS
 62
     0
100
AcDbPoint
 10
149.2396771889998
 20
119.7454876332777
 30
0.0
  0
POINT
  5
7F9
330
7EF
100
AcDbEntity
  8
DEFPOINTS
 62
     0
100
AcDbPoint
 10
149.2396771889998
 20
86.74548763327766
 30
0.0
  0
POINT
  5
7FA
330
7EF
100
AcDbEntity
  8
DEFPOINTS
 62
     0
100
AcDbPoint
 10
120.8512600820086
 20
86.74548763327766
 30
0.0
  0
ENDBLK
  5
7FB
330
7EF
100
AcDbEntity
  8
0
100
AcDbBlockEnd
  0
BLOCK
  5
7FE
330
7FD
100
AcDbEntity
  8
0
100
AcDbBlockBegin
  2
*D52
 70
     1
 10
0.0
 20
0.0
 30
0.0
  3
*D52
  1

  0
LINE
  5
7FF
330
7FD
100
AcDbEntity
  8
20_DIM
 62
     0
100
AcDbLine
 10
140.239677188998
 20
85.74548763327766
 30
0.0
 11
140.239677188998
 21
43.21604840289729
 31
0.0
  0
LINE
  5
800
330
7FD
100
AcDbEntity
  8
20_DIM
 62
     0
100
AcDbLine
 10
160.2396771889998
 20
83.74548763327766
 30
0.0
 11
160.2396771889998
 21
43.21604840289729
 31
0.0
  0
LINE
  5
801
330
7FD
100
AcDbEntity
  8
20_DIM
 62
     0
100
AcDbLine
 10
140.239677188998
 20
44.21604840289729
 30
0.0
 11
209.0756771890009
 21
44.21604840289729
 31
0.0
  0
LINE
  5
802
330
7FD
100
AcDbEntity
  8
20_DIM
 62
     0
100
AcDbLine
 10
148.239677188998
 20
44.21604840289729
 30
0.0
 11
152.2396771889998
 21
44.21604840289729
 31
0.0
  0
INSERT
  5
803
330
7FD
100
AcDbEntity
  8
20_DIM
 62
     0
100
AcDbBlockReference
  2
_OPEN
 10
140.239677188998
 20
44.21604840289729
 30
0.0
 41
8.0
 42
8.0
 43
8.0
 50
180.0
  0
INSERT
  5
804
330
7FD
100
AcDbEntity
  8
20_DIM
 62
     0
100
AcDbBlockReference
  2
_OPEN
 10
160.2396771889998
 20
44.21604840289729
 30
0.0
 41
8.0
 42
8.0
 43
8.0
  0
MTEXT
  5
805
330
7FD
100
AcDbEntity
  8
20_DIM
 62
     0
100
AcDbMText
 10
190.0396771890009
 20
49.23604840289729
 30
0.0
 40
8.0
 41
0.0
 71
     5
 72
     1
  1
20%%p0.3
  0
POINT
  5
806
330
7FD
100
AcDbEntity
  8
DEFPOINTS
 62
     0
100
AcDbPoint
 10
140.239677188998
 20
88.74548763327766
 30
0.0
  0
POINT
  5
807
330
7FD
100
AcDbEntity
  8
DEFPOINTS
 62
     0
100
AcDbPoint
 10
160.2396771889998
 20
86.74548763327766
 30
0.0
  0
POINT
  5
808
330
7FD
100
AcDbEntity
  8
DEFPOINTS
 62
     0
100
AcDbPoint
 10
160.2396771889998
 20
44.21604840289729
 30
0.0
  0
ENDBLK
  5
809
330
7FD
100
AcDbEntity
  8
0
100
AcDbBlockEnd
  0
BLOCK
  5
80C
330
80B
100
AcDbEntity
  8
0
100
AcDbBlockBegin
  2
*D53
 70
     1
 10
0.0
 20
0.0
 30
0.0
  3
*D53
  1

  0
LINE
  5
80D
330
80B
100
AcDbEntity
  8
20_DIM
 62
     0
100
AcDbLine
 10
133.2396771889998
 20
99.54548763327693
 30
0.0
 11
133.2396771889998
 21
43.21604840289729
 31
0.0
  0
LINE
  5
80E
330
80B
100
AcDbEntity
  8
20_DIM
 62
     0
100
AcDbLine
 10
140.239677188998
 20
85.74548763327766
 30
0.0
 11
140.239677188998
 21
43.21604840289729
 31
0.0
  0
LINE
  5
80F
330
80B
100
AcDbEntity
  8
20_DIM
 62
     0
100
AcDbLine
 10
133.2396771889998
 20
44.21604840289729
 30
0.0
 11
110.417010522332
 21
44.21604840289729
 31
0.0
  0
LINE
  5
810
330
80B
100
AcDbEntity
  8
20_DIM
 62
     0
100
AcDbLine
 10
133.2396771889998
 20
44.21604840289729
 30
0.0
 11
140.239677188998
 21
44.21604840289729
 31
0.0
  0
LINE
  5
811
330
80B
100
AcDbEntity
  8
20_DIM
 62
     0
100
AcDbLine
 10
125.2396771889998
 20
44.21604840289729
 30
0.0
 11
117.2396771889998
 21
44.21604840289729
 31
0.0
  0
LINE
  5
812
330
80B
100
AcDbEntity
  8
20_DIM
 62
     0
100
AcDbLine
 10
148.239677188998
 20
44.21604840289729
 30
0.0
 11
156.239677188998
 21
44.21604840289729
 31
0.0
  0
INSERT
  5
813
330
80B
100
AcDbEntity
  8
20_DIM
 62
     0
100
AcDbBlockReference
  2
_OPEN
 10
133.2396771889998
 20
44.21604840289729
 30
0.0
 41
8.0
 42
8.0
 43
8.0
  0
INSERT
  5
814
330
80B
100
AcDbEntity
  8
20_DIM
 62
     0
100
AcDbBlockReference
  2
_OPEN
 10
140.239677188998
 20
44.21604840289729
 30
0.0
 41
8.0
 42
8.0
 43
8.0
 50
180.0
  0
MTEXT
  5
815
330
80B
100
AcDbEntity
  8
20_DIM
 62
     0
100
AcDbMText
 10
113.573010522332
 20
49.21604840289729
 30
0.0
 40
8.0
 41
0.0
 71
     5
 72
     1
  1
7
  0
POINT
  5
816
330
80B
100
AcDbEntity
  8
DEFPOINTS
 62
     0
100
AcDbPoint
 10
133.2396771889998
 20
102.5454876332769
 30
0.0
  0
POINT
  5
817
330
80B
100
AcDbEntity
  8
DEFPOINTS
 62
     0
100
AcDbPoint
 10
140.239677188998
 20
88.74548763327766
 30
0.0
  0
POINT
  5
8BC
330
80B
100
AcDbEntity
  8
DEFPOINTS
 62
     0
100
AcDbPoint
 10
140.239677188998
 20
44.21604840289729
 30
0.0
  0
ENDBLK
  5
818
330
80B
100
AcDbEntity
  8
0
100
AcDbBlockEnd
  0
BLOCK
  5
81C
330
81B
100
AcDbEntity
  8
0
100
AcDbBlockBegin
  2
_DOTSMALL
 70
     0
 10
0.0
 20
0.0
 30
0.0
  3
_DOTSMALL
  1

  0
LWPOLYLINE
  5
81D
330
81B
100
AcDbEntity
  8
0
  6
BYBLOCK
 62
     0
100
AcDbPolyline
 90
        2
 70
     1
 43
0.5
 10
-0.0625
 20
0.0
 42
1.0
 10
0.0625
 20
0.0
 42
1.0
  0
ENDBLK
  5
81E
330
81B
100
AcDbEntity
  8
0
100
AcDbBlockEnd
  0
BLOCK
  5
869
330
868
100
AcDbEntity
  8
0
100
AcDbBlockBegin
  2
*D55
 70
     1
 10
0.0
 20
0.0
 30
0.0
  3
*D55
  1

  0
LINE
  5
86A
330
868
100
AcDbEntity
  8
20_DIM
 62
     0
100
AcDbLine
 10
45.38809548809695
 20
100.247536509396
 30
0.0
 11
45.38809548809695
 21
43.22357977364663
 31
0.0
  0
LINE
  5
86B
330
868
100
AcDbEntity
  8
20_DIM
 62
     0
100
AcDbLine
 10
58.08809548809404
 20
100.247536509396
 30
0.0
 11
58.08809548809404
 21
43.22357977364663
 31
0.0
  0
LINE
  5
86C
330
868
100
AcDbEntity
  8
20_DIM
 62
     0
100
AcDbLine
 10
45.38809548809695
 20
44.22357977364663
 30
0.0
 11
2.691047619045889
 21
44.22357977364663
 31
0.0
  0
LINE
  5
86D
330
868
100
AcDbEntity
  8
20_DIM
 62
     0
100
AcDbLine
 10
45.38809548809695
 20
44.22357977364663
 30
0.0
 11
58.08809548809404
 21
44.22357977364663
 31
0.0
  0
LINE
  5
86E
330
868
100
AcDbEntity
  8
20_DIM
 62
     0
100
AcDbLine
 10
37.38809548809695
 20
44.22357977364663
 30
0.0
 11
29.38809548809695
 21
44.22357977364663
 31
0.0
  0
LINE
  5
86F
330
868
100
AcDbEntity
  8
20_DIM
 62
     0
100
AcDbLine
 10
66.08809548809404
 20
44.22357977364663
 30
0.0
 11
74.08809548809404
 21
44.22357977364663
 31
0.0
  0
INSERT
  5
870
330
868
100
AcDbEntity
  8
20_DIM
 62
     0
100
AcDbBlockReference
  2
_OPEN
 10
45.38809548809695
 20
44.22357977364663
 30
0.0
 41
8.0
 42
8.0
 43
8.0
  0
INSERT
  5
871
330
868
100
AcDbEntity
  8
20_DIM
 62
     0
100
AcDbBlockReference
  2
_OPEN
 10
58.08809548809404
 20
44.22357977364663
 30
0.0
 41
8.0
 42
8.0
 43
8.0
 50
180.0
  0
MTEXT
  5
872
330
868
100
AcDbEntity
  8
20_DIM
 62
     0
100
AcDbMText
 10
12.61904761904589
 20
49.24357977364664
 30
0.0
 40
8.0
 41
0.0
 71
     5
 72
     1
  1
12.7
  0
POINT
  5
873
330
868
100
AcDbEntity
  8
DEFPOINTS
 62
     0
100
AcDbPoint
 10
45.38809548809695
 20
103.247536509396
 30
0.0
  0
POINT
  5
874
330
868
100
AcDbEntity
  8
DEFPOINTS
 62
     0
100
AcDbPoint
 10
58.08809548809404
 20
103.247536509396
 30
0.0
  0
POINT
  5
8BD
330
868
100
AcDbEntity
  8
DEFPOINTS
 62
     0
100
AcDbPoint
 10
58.08809548809404
 20
44.22357977364663
 30
0.0
  0
ENDBLK
  5
875
330
868
100
AcDbEntity
  8
0
100
AcDbBlockEnd
  0
BLOCK
  5
97B
330
97A
100
AcDbEntity
  8
0
100
AcDbBlockBegin
  2
*D56
 70
     1
 10
0.0
 20
0.0
 30
0.0
  3
*D56
  1

  0
LINE
  5
97D
330
97A
100
AcDbEntity
  8
20_DIM
 62
     0
100
AcDbLine
 10
183.2713869574749
 20
285.6552290224199
 30
0.0
 11
183.2713869574749
 21
228.1257897920505
 31
0.0
  0
LINE
  5
97E
330
97A
100
AcDbEntity
  8
20_DIM
 62
     0
100
AcDbLine
 10
763.2713869574767
 20
285.6552290224199
 30
0.0
 11
763.2713869574767
 21
228.1257897920505
 31
0.0
  0
LINE
  5
97F
330
97A
100
AcDbEntity
  8
20_DIM
 62
     0
100
AcDbLine
 10
191.2713869574749
 20
229.1257897920505
 30
0.0
 11
755.2713869574767
 21
229.1257897920505
 31
0.0
  0
INSERT
  5
980
330
97A
100
AcDbEntity
  8
20_DIM
 62
     0
100
AcDbBlockReference
  2
_OPEN
 10
183.2713869574749
 20
229.1257897920505
 30
0.0
 41
8.0
 42
8.0
 43
8.0
 50
180.0
  0
INSERT
  5
981
330
97A
100
AcDbEntity
  8
20_DIM
 62
     0
100
AcDbBlockReference
  2
_OPEN
 10
763.2713869574767
 20
229.1257897920505
 30
0.0
 41
8.0
 42
8.0
 43
8.0
  0
MTEXT
  5
982
330
97A
100
AcDbEntity
  8
20_DIM
 62
     0
100
AcDbMText
 10
464.2713869574767
 20
234.1457897920505
 30
0.0
 40
8.0
 41
0.0
 71
     5
 72
     1
  1
580±1.5
  0
POINT
  5
983
330
97A
100
AcDbEntity
  8
DEFPOINTS
 62
     0
100
AcDbPoint
 10
183.2713869574749
 20
288.6552290224199
 30
0.0
  0
POINT
  5
984
330
97A
100
AcDbEntity
  8
DEFPOINTS
 62
     0
100
AcDbPoint
 10
763.2713869574767
 20
288.6552290224199
 30
0.0
  0
POINT
  5
985
330
97A
100
AcDbEntity
  8
DEFPOINTS
 62
     0
100
AcDbPoint
 10
763.2713869574767
 20
229.1257897920505
 30
0.0
  0
ENDBLK
  5
97C
330
97A
100
AcDbEntity
  8
0
100
AcDbBlockEnd
  0
BLOCK
  5
987
330
986
100
AcDbEntity
  8
0
100
AcDbBlockBegin
  2
*D57
 70
     1
 10
0.0
 20
0.0
 30
0.0
  3
*D57
  1

  0
LINE
  5
989
330
986
100
AcDbEntity
  8
20_DIM
 62
     0
100
AcDbLine
 10
283.9281658835429
 20
318.6552290224199
 30
0.0
 11
283.9281658835429
 21
376.9946575938504
 31
0.0
  0
LINE
  5
98A
330
986
100
AcDbEntity
  8
20_DIM
 62
     0
100
AcDbLine
 10
283.9281658835429
 20
310.6552290224199
 30
0.0
 11
283.9281658835429
 21
295.6552290224199
 31
0.0
  0
INSERT
  5
98B
330
986
100
AcDbEntity
  8
20_DIM
 62
     0
100
AcDbBlockReference
  2
_OPEN
 10
283.9281658835429
 20
318.6552290224199
 30
0.0
 41
8.0
 42
8.0
 43
8.0
 50
90.0
  0
INSERT
  5
98C
330
986
100
AcDbEntity
  8
20_DIM
 62
     0
100
AcDbBlockReference
  2
_OPEN
 10
283.9281658835429
 20
287.6552290224199
 30
0.0
 41
8.0
 42
8.0
 43
8.0
 50
270.0
  0
MTEXT
  5
98D
330
986
100
AcDbEntity
  8
20_DIM
 62
     0
100
AcDbMText
 10
277.7241658835429
 20
353.0266575938504
 30
0.0
 40
8.0
 41
0.0
 71
     5
 72
     1
  1
φ31%%p0.5
 11
0.0
 21
1.0
 31
0.0
  0
POINT
  5
98E
330
986
100
AcDbEntity
  8
DEFPOINTS
 62
     0
100
AcDbPoint
 10
203.2713869574767
 20
318.6552290224199
 30
0.0
  0
POINT
  5
98F
330
986
100
AcDbEntity
  8
DEFPOINTS
 62
     0
100
AcDbPoint
 10
203.2713869574767
 20
287.6552290224199
 30
0.0
  0
POINT
  5
990
330
986
100
AcDbEntity
  8
DEFPOINTS
 62
     0
100
AcDbPoint
 10
283.9281658835429
 20
287.6552290224199
 30
0.0
  0
ENDBLK
  5
988
330
986
100
AcDbEntity
  8
0
100
AcDbBlockEnd
  0
BLOCK
  5
992
330
991
100
AcDbEntity
  8
0
100
AcDbBlockBegin
  2
*D58
 70
     1
 10
0.0
 20
0.0
 30
0.0
  3
*D58
  1

  0
LINE
  5
994
330
991
100
AcDbEntity
  8
20_DIM
 62
     0
100
AcDbLine
 10
189.2713869574767
 20
319.6552290224199
 30
0.0
 11
162.8829698504854
 21
319.6552290224199
 31
0.0
  0
LINE
  5
995
330
991
100
AcDbEntity
  8
20_DIM
 62
     0
100
AcDbLine
 10
189.2713869574767
 20
286.6552290224199
 30
0.0
 11
162.8829698504854
 21
286.6552290224199
 31
0.0
  0
LINE
  5
996
330
991
100
AcDbEntity
  8
20_DIM
 62
     0
100
AcDbLine
 10
163.8829698504854
 20
319.6552290224199
 30
0.0
 11
163.8829698504854
 21
377.9946575938504
 31
0.0
  0
LINE
  5
997
330
991
100
AcDbEntity
  8
20_DIM
 62
     0
100
AcDbLine
 10
163.8829698504854
 20
311.6552290224199
 30
0.0
 11
163.8829698504854
 21
294.6552290224199
 31
0.0
  0
INSERT
  5
998
330
991
100
AcDbEntity
  8
20_DIM
 62
     0
100
AcDbBlockReference
  2
_OPEN
 10
163.8829698504854
 20
319.6552290224199
 30
0.0
 41
8.0
 42
8.0
 43
8.0
 50
90.0
  0
INSERT
  5
999
330
991
100
AcDbEntity
  8
20_DIM
 62
     0
100
AcDbBlockReference
  2
_OPEN
 10
163.8829698504854
 20
286.6552290224199
 30
0.0
 41
8.0
 42
8.0
 43
8.0
 50
270.0
  0
MTEXT
  5
99A
330
991
100
AcDbEntity
  8
20_DIM
 62
     0
100
AcDbMText
 10
157.6789698504854
 20
354.0266575938504
 30
0.0
 40
8.0
 41
0.0
 71
     5
 72
     1
  1
φ33%%p0.3
 11
0.0
 21
1.0
 31
0.0
  0
POINT
  5
99B
330
991
100
AcDbEntity
  8
DEFPOINTS
 62
     0
100
AcDbPoint
 10
192.2713869574767
 20
319.6552290224199
 30
0.0
  0
POINT
  5
99C
330
991
100
AcDbEntity
  8
DEFPOINTS
 62
     0
100
AcDbPoint
 10
192.2713869574767
 20
286.6552290224199
 30
0.0
  0
POINT
  5
99D
330
991
100
AcDbEntity
  8
DEFPOINTS
 62
     0
100
AcDbPoint
 10
163.8829698504854
 20
286.6552290224199
 30
0.0
  0
ENDBLK
  5
993
330
991
100
AcDbEntity
  8
0
100
AcDbBlockEnd
  0
BLOCK
  5
99F
330
99E
100
AcDbEntity
  8
0
100
AcDbBlockBegin
  2
*D59
 70
     1
 10
0.0
 20
0.0
 30
0.0
  3
*D59
  1

  0
LINE
  5
9A1
330
99E
100
AcDbEntity
  8
20_DIM
 62
     0
100
AcDbLine
 10
183.2713869574749
 20
285.6552290224199
 30
0.0
 11
183.2713869574749
 21
243.1257897920395
 31
0.0
  0
LINE
  5
9A2
330
99E
100
AcDbEntity
  8
20_DIM
 62
     0
100
AcDbLine
 10
203.2713869574767
 20
283.6552290224199
 30
0.0
 11
203.2713869574767
 21
243.1257897920395
 31
0.0
  0
LINE
  5
9A3
330
99E
100
AcDbEntity
  8
20_DIM
 62
     0
100
AcDbLine
 10
183.2713869574749
 20
244.1257897920395
 30
0.0
 11
252.1073869574778
 21
244.1257897920395
 31
0.0
  0
LINE
  5
9A4
330
99E
100
AcDbEntity
  8
20_DIM
 62
     0
100
AcDbLine
 10
191.2713869574749
 20
244.1257897920395
 30
0.0
 11
195.2713869574767
 21
244.1257897920395
 31
0.0
  0
INSERT
  5
9A5
330
99E
100
AcDbEntity
  8
20_DIM
 62
     0
100
AcDbBlockReference
  2
_OPEN
 10
183.2713869574749
 20
244.1257897920395
 30
0.0
 41
8.0
 42
8.0
 43
8.0
 50
180.0
  0
INSERT
  5
9A6
330
99E
100
AcDbEntity
  8
20_DIM
 62
     0
100
AcDbBlockReference
  2
_OPEN
 10
203.2713869574767
 20
244.1257897920395
 30
0.0
 41
8.0
 42
8.0
 43
8.0
  0
MTEXT
  5
9A7
330
99E
100
AcDbEntity
  8
20_DIM
 62
     0
100
AcDbMText
 10
233.0713869574778
 20
249.1457897920396
 30
0.0
 40
8.0
 41
0.0
 71
     5
 72
     1
  1
20%%p0.3
  0
POINT
  5
9A8
330
99E
100
AcDbEntity
  8
DEFPOINTS
 62
     0
100
AcDbPoint
 10
183.2713869574749
 20
288.6552290224199
 30
0.0
  0
POINT
  5
9A9
330
99E
100
AcDbEntity
  8
DEFPOINTS
 62
     0
100
AcDbPoint
 10
203.2713869574767
 20
286.6552290224199
 30
0.0
  0
POINT
  5
9AA
330
99E
100
AcDbEntity
  8
DEFPOINTS
 62
     0
100
AcDbPoint
 10
203.2713869574767
 20
244.1257897920395
 30
0.0
  0
ENDBLK
  5
9A0
330
99E
100
AcDbEntity
  8
0
100
AcDbBlockEnd
  0
BLOCK
  5
9AC
330
9AB
100
AcDbEntity
  8
0
100
AcDbBlockBegin
  2
*D60
 70
     1
 10
0.0
 20
0.0
 30
0.0
  3
*D60
  1

  0
LINE
  5
9AE
330
9AB
100
AcDbEntity
  8
20_DIM
 62
     0
100
AcDbLine
 10
176.2713869574767
 20
299.4552290224192
 30
0.0
 11
176.2713869574767
 21
243.1257897920395
 31
0.0
  0
LINE
  5
9AF
330
9AB
100
AcDbEntity
  8
20_DIM
 62
     0
100
AcDbLine
 10
183.2713869574749
 20
285.6552290224199
 30
0.0
 11
183.2713869574749
 21
243.1257897920395
 31
0.0
  0
LINE
  5
9B0
330
9AB
100
AcDbEntity
  8
20_DIM
 62
     0
100
AcDbLine
 10
176.2713869574767
 20
244.1257897920395
 30
0.0
 11
153.4487202908088
 21
244.1257897920395
 31
0.0
  0
LINE
  5
9B1
330
9AB
100
AcDbEntity
  8
20_DIM
 62
     0
100
AcDbLine
 10
176.2713869574767
 20
244.1257897920395
 30
0.0
 11
183.2713869574749
 21
244.1257897920395
 31
0.0
  0
LINE
  5
9B2
330
9AB
100
AcDbEntity
  8
20_DIM
 62
     0
100
AcDbLine
 10
168.2713869574767
 20
244.1257897920395
 30
0.0
 11
160.2713869574767
 21
244.1257897920395
 31
0.0
  0
LINE
  5
9B3
330
9AB
100
AcDbEntity
  8
20_DIM
 62
     0
100
AcDbLine
 10
191.2713869574749
 20
244.1257897920395
 30
0.0
 11
199.2713869574749
 21
244.1257897920395
 31
0.0
  0
INSERT
  5
9B4
330
9AB
100
AcDbEntity
  8
20_DIM
 62
     0
100
AcDbBlockReference
  2
_OPEN
 10
176.2713869574767
 20
244.1257897920395
 30
0.0
 41
8.0
 42
8.0
 43
8.0
  0
INSERT
  5
9B5
330
9AB
100
AcDbEntity
  8
20_DIM
 62
     0
100
AcDbBlockReference
  2
_OPEN
 10
183.2713869574749
 20
244.1257897920395
 30
0.0
 41
8.0
 42
8.0
 43
8.0
 50
180.0
  0
MTEXT
  5
9B6
330
9AB
100
AcDbEntity
  8
20_DIM
 62
     0
100
AcDbMText
 10
156.6047202908088
 20
249.1257897920395
 30
0.0
 40
8.0
 41
0.0
 71
     5
 72
     1
  1
7
  0
POINT
  5
9B7
330
9AB
100
AcDbEntity
  8
DEFPOINTS
 62
     0
100
AcDbPoint
 10
176.2713869574767
 20
302.4552290224192
 30
0.0
  0
POINT
  5
9B8
330
9AB
100
AcDbEntity
  8
DEFPOINTS
 62
     0
100
AcDbPoint
 10
183.2713869574749
 20
288.6552290224199
 30
0.0
  0
POINT
  5
9B9
330
9AB
100
AcDbEntity
  8
DEFPOINTS
 62
     0
100
AcDbPoint
 10
183.2713869574749
 20
244.1257897920395
 30
0.0
  0
ENDBLK
  5
9AD
330
9AB
100
AcDbEntity
  8
0
100
AcDbBlockEnd
  0
BLOCK
  5
9BB
330
9BA
100
AcDbEntity
  8
0
100
AcDbBlockBegin
  2
*D61
 70
     1
 10
0.0
 20
0.0
 30
0.0
  3
*D61
  1

  0
LINE
  5
9BD
330
9BA
100
AcDbEntity
  8
20_DIM
 62
     0
100
AcDbLine
 10
88.4198052565738
 20
300.1572778985383
 30
0.0
 11
88.4198052565738
 21
243.1333211627889
 31
0.0
  0
LINE
  5
9BE
330
9BA
100
AcDbEntity
  8
20_DIM
 62
     0
100
AcDbLine
 10
101.1198052565709
 20
300.1572778985383
 30
0.0
 11
101.1198052565709
 21
243.1333211627889
 31
0.0
  0
LINE
  5
9BF
330
9BA
100
AcDbEntity
  8
20_DIM
 62
     0
100
AcDbLine
 10
88.4198052565738
 20
244.1333211627889
 30
0.0
 11
45.72275738752273
 21
244.1333211627889
 31
0.0
  0
LINE
  5
9C0
330
9BA
100
AcDbEntity
  8
20_DIM
 62
     0
100
AcDbLine
 10
88.4198052565738
 20
244.1333211627889
 30
0.0
 11
101.1198052565709
 21
244.1333211627889
 31
0.0
  0
LINE
  5
9C1
330
9BA
100
AcDbEntity
  8
20_DIM
 62
     0
100
AcDbLine
 10
80.4198052565738
 20
244.1333211627889
 30
0.0
 11
72.4198052565738
 21
244.1333211627889
 31
0.0
  0
LINE
  5
9C2
330
9BA
100
AcDbEntity
  8
20_DIM
 62
     0
100
AcDbLine
 10
109.1198052565709
 20
244.1333211627889
 30
0.0
 11
117.1198052565709
 21
244.1333211627889
 31
0.0
  0
INSERT
  5
9C3
330
9BA
100
AcDbEntity
  8
20_DIM
 62
     0
100
AcDbBlockReference
  2
_OPEN
 10
88.4198052565738
 20
244.1333211627889
 30
0.0
 41
8.0
 42
8.0
 43
8.0
  0
INSERT
  5
9C4
330
9BA
100
AcDbEntity
  8
20_DIM
 62
     0
100
AcDbBlockReference
  2
_OPEN
 10
101.1198052565709
 20
244.1333211627889
 30
0.0
 41
8.0
 42
8.0
 43
8.0
 50
180.0
  0
MTEXT
  5
9C5
330
9BA
100
AcDbEntity
  8
20_DIM
 62
     0
100
AcDbMText
 10
55.65075738752273
 20
249.1533211627889
 30
0.0
 40
8.0
 41
0.0
 71
     5
 72
     1
  1
12.7
  0
POINT
  5
9C6
330
9BA
100
AcDbEntity
  8
DEFPOINTS
 62
     0
100
AcDbPoint
 10
88.4198052565738
 20
303.1572778985383
 30
0.0
  0
POINT
  5
9C7
330
9BA
100
AcDbEntity
  8
DEFPOINTS
 62
     0
100
AcDbPoint
 10
101.1198052565709
 20
303.1572778985383
 30
0.0
  0
POINT
  5
9C8
330
9BA
100
AcDbEntity
  8
DEFPOINTS
 62
     0
100
AcDbPoint
 10
101.1198052565709
 20
244.1333211627889
 30
0.0
  0
ENDBLK
  5
9BC
330
9BA
100
AcDbEntity
  8
0
100
AcDbBlockEnd
  0
BLOCK
  5
A16
330
A15
100
AcDbEntity
  8
0
100
AcDbBlockBegin
  2
SW_TABLEANNOTATION_1234560
 70
     0
 10
0.0
 20
0.0
 30
0.0
  3
SW_TABLEANNOTATION_1234560
  1
SW_TABLEANNOTATION_1234560
  0
LINE
  5
A17
330
A15
100
AcDbEntity
  8
中心線
  6
CONTINUOUS
 62
     0
100
AcDbLine
 10
0.0
 20
0.0
 30
0.0
 11
0.0
 21
-115.1931699311
 31
0.0
  0
LINE
  5
A18
330
A15
100
AcDbEntity
  8
中心線
  6
CONTINUOUS
 62
     0
100
AcDbLine
 10
0.0
 20
-115.1931699311
 30
0.0
 11
73.83597331760001
 21
-115.1931699311
 31
0.0
  0
LINE
  5
A19
330
A15
100
AcDbEntity
  8
中心線
  6
CONTINUOUS
 62
     0
100
AcDbLine
 10
73.83597331760001
 20
-115.1931699311
 30
0.0
 11
73.83597331760001
 21
0.0
 31
0.0
  0
LINE
  5
A1A
330
A15
100
AcDbEntity
  8
中心線
  6
CONTINUOUS
 62
     0
100
AcDbLine
 10
73.83597331760001
 20
0.0
 30
0.0
 11
0.0
 21
0.0
 31
0.0
  0
LINE
  5
A1B
330
A15
100
AcDbEntity
  8
中心線
  6
CONTINUOUS
 62
     0
100
AcDbLine
 10
29.57527556780002
 20
-6.744675917599977
 30
0.0
 11
29.49879348696675
 21
-115.2439805779781
 31
0.0
  0
LINE
  5
A1C
330
A15
100
AcDbEntity
  8
中心線
  6
CONTINUOUS
 62
     0
100
AcDbLine
 10
0.0
 20
-6.744675917599977
 30
0.0
 11
73.83597331760001
 21
-6.744675917599977
 31
0.0
  0
LINE
  5
A1D
330
A15
100
AcDbEntity
  8
中心線
  6
CONTINUOUS
 62
     0
100
AcDbLine
 10
0.0
 20
-13.48935183510002
 30
0.0
 11
73.83597331760001
 21
-13.48935183510002
 31
0.0
  0
LINE
  5
A1E
330
A15
100
AcDbEntity
  8
中心線
  6
CONTINUOUS
 62
     0
100
AcDbLine
 10
0.0
 20
-20.2340277527
 30
0.0
 11
73.83597331760001
 21
-20.2340277527
 31
0.0
  0
LINE
  5
A1F
330
A15
100
AcDbEntity
  8
中心線
  6
CONTINUOUS
 62
     0
100
AcDbLine
 10
0.0
 20
-26.97870367019999
 30
0.0
 11
73.83597331760001
 21
-26.97870367019999
 31
0.0
  0
LINE
  5
A20
330
A15
100
AcDbEntity
  8
中心線
  6
CONTINUOUS
 62
     0
100
AcDbLine
 10
0.0
 20
-33.7233795878
 30
0.0
 11
73.83597331760001
 21
-33.7233795878
 31
0.0
  0
LINE
  5
A21
330
A15
100
AcDbEntity
  8
中心線
  6
CONTINUOUS
 62
     0
100
AcDbLine
 10
0.0
 20
-40.46805550530001
 30
0.0
 11
73.83597331760001
 21
-40.46805550530001
 31
0.0
  0
LINE
  5
A22
330
A15
100
AcDbEntity
  8
中心線
  6
CONTINUOUS
 62
     0
100
AcDbLine
 10
0.0
 20
-53.95740734040001
 30
0.0
 11
73.83597331760001
 21
-53.95740734040001
 31
0.0
  0
LINE
  5
A23
330
A15
100
AcDbEntity
  8
中心線
  6
CONTINUOUS
 62
     0
100
AcDbLine
 10
0.0
 20
-60.75225531199999
 30
0.0
 11
73.83597331760001
 21
-60.75225531199999
 31
0.0
  0
LINE
  5
A24
330
A15
100
AcDbEntity
  8
中心線
  6
CONTINUOUS
 62
     0
100
AcDbLine
 10
0.0
 20
-67.4969312296
 30
0.0
 11
73.83597331760001
 21
-67.4969312296
 31
0.0
  0
LINE
  5
A25
330
A15
100
AcDbEntity
  8
中心線
  6
CONTINUOUS
 62
     0
100
AcDbLine
 10
0.0
 20
-74.24160714710001
 30
0.0
 11
73.83597331760001
 21
-74.24160714710001
 31
0.0
  0
LINE
  5
A26
330
A15
100
AcDbEntity
  8
中心線
  6
CONTINUOUS
 62
     0
100
AcDbLine
 10
0.0
 20
-81.40799883829999
 30
0.0
 11
73.83597331760001
 21
-81.40799883829999
 31
0.0
  0
LINE
  5
A27
330
A15
100
AcDbEntity
  8
中心線
  6
CONTINUOUS
 62
     0
100
AcDbLine
 10
0.0
 20
-88.1526747559
 30
0.0
 11
73.83597331760001
 21
-88.1526747559
 31
0.0
  0
LINE
  5
A28
330
A15
100
AcDbEntity
  8
中心線
  6
CONTINUOUS
 62
     0
100
AcDbLine
 10
0.0
 20
-94.9591421785
 30
0.0
 11
73.83597331760001
 21
-94.9591421785
 31
0.0
  0
LINE
  5
A29
330
A15
100
AcDbEntity
  8
中心線
  6
CONTINUOUS
 62
     0
100
AcDbLine
 10
0.0
 20
-101.703818096
 30
0.0
 11
73.83597331760001
 21
-101.703818096
 31
0.0
  0
LINE
  5
A2A
330
A15
100
AcDbEntity
  8
中心線
  6
CONTINUOUS
 62
     0
100
AcDbLine
 10
0.0
 20
-108.4484940136
 30
0.0
 11
73.83597331760001
 21
-108.4484940136
 31
0.0
  0
MTEXT
  5
A2B
330
A15
100
AcDbEntity
  8
中心線
  6
CONTINUOUS
 62
     0
100
AcDbMText
 10
29.20898945276167
 20
-2.026025978923315
 30
0.0
 40
2.5
 41
0.0
 71
     1
 72
     1
  1
本体仕様
  0
MTEXT
  5
A2C
330
A15
100
AcDbEntity
  8
中心線
  6
CONTINUOUS
 62
     0
100
AcDbMText
 10
0.9382247838616422
 20
-8.770701896523349
 30
0.0
 40
2.5
 41
0.0
 71
     1
 72
     1
  1
型式
  0
MTEXT
  5
A2D
330
A15
100
AcDbEntity
  8
中心線
  6
CONTINUOUS
 62
     0
100
AcDbMText
 10
39.09222745259666
 20
-8.909818663290025
 30
0.0
 40
2.5
 41
0.0
 71
     1
 72
     1
  1
{CS300-400-50DT}
1001
ACAD
1000
ACAD_MTEXT_DEFINED_HEIGHT_BEGIN
1070
    46
1040
2.5
1000
ACAD_MTEXT_DEFINED_HEIGHT_END
  0
MTEXT
  5
A2E
330
A15
100
AcDbEntity
  8
中心線
  6
CONTINUOUS
 62
     0
100
AcDbMText
 10
0.9382247838616422
 20
-15.26320800272333
 30
0.0
 40
2.5
 41
0.0
 71
     1
 72
     1
  1
{質量}
1001
ACAD
1000
ACAD_MTEXT_DEFINED_HEIGHT_BEGIN
1070
    46
1040
3.5
1000
ACAD_MTEXT_DEFINED_HEIGHT_END
  0
MTEXT
  5
A2F
330
A15
100
AcDbEntity
  8
中心線
  6
CONTINUOUS
 62
     0
100
AcDbMText
 10
48.15044652566166
 20
-15.26320800272333
 30
0.0
 40
2.5
 41
0.0
 71
     1
 72
     1
  1
{1030g}
1001
ACAD
1000
ACAD_MTEXT_DEFINED_HEIGHT_BEGIN
1070
    46
1040
3.333333333333333
1000
ACAD_MTEXT_DEFINED_HEIGHT_END
  0
MTEXT
  5
A30
330
A15
100
AcDbEntity
  8
中心線
  6
CONTINUOUS
 62
     0
100
AcDbMText
 10
0.9382247838616422
 20
-22.26005373162332
 30
0.0
 40
2.5
 41
0.0
 71
     1
 72
     1
  1
{入力電圧}
1001
ACAD
1000
ACAD_MTEXT_DEFINED_HEIGHT_BEGIN
1070
    46
1040
2.685
1000
ACAD_MTEXT_DEFINED_HEIGHT_END
  0
MTEXT
  5
A31
330
A15
100
AcDbEntity
  8
中心線
  6
CONTINUOUS
 62
     0
100
AcDbMText
 10
46.12455108130342
 20
-22.4923480944841
 30
0.0
 40
2.5
 41
0.0
 71
     1
 72
     1
  1
{DC42V}
1001
ACAD
1000
ACAD_MTEXT_DEFINED_HEIGHT_BEGIN
1070
    46
1040
2.5
1000
ACAD_MTEXT_DEFINED_HEIGHT_END
  0
MTEXT
  5
A32
330
A15
100
AcDbEntity
  8
中心線
  6
CONTINUOUS
 62
     0
100
AcDbMText
 10
0.9382247838616422
 20
-29.00472964912333
 30
0.0
 40
2.5
 41
0.0
 71
     1
 72
     1
  1
消費電力
  0
MTEXT
  5
A33
330
A15
100
AcDbEntity
  8
中心線
  6
CONTINUOUS
 62
     0
100
AcDbMText
 10
48.59523827106165
 20
-29.00472964912333
 30
0.0
 40
2.5
 41
0.0
 71
     1
 72
     1
  1
{90W}
1001
ACAD
1000
ACAD_MTEXT_DEFINED_HEIGHT_BEGIN
1070
    46
1040
2.5
1000
ACAD_MTEXT_DEFINED_HEIGHT_END
  0
MTEXT
  5
A34
330
A15
100
AcDbEntity
  8
中心線
  6
CONTINUOUS
 62
     0
100
AcDbMText
 10
0.9382247838616422
 20
-35.74940556672334
 30
0.0
 40
2.5
 41
0.0
 71
     1
 72
     1
  1
全光束
  0
MTEXT
  5
A35
330
A15
100
AcDbEntity
  8
中心線
  6
CONTINUOUS
 62
     0
100
AcDbMText
 10
45.73204394326166
 20
-35.74940556672334
 30
0.0
 40
2.5
 41
0.0
 71
     1
 72
     1
  1
{14320lm}
1001
ACAD
1000
ACAD_MTEXT_DEFINED_HEIGHT_BEGIN
1070
    46
1040
2.5
1000
ACAD_MTEXT_DEFINED_HEIGHT_END
  0
MTEXT
  5
A36
330
A15
100
AcDbEntity
  8
中心線
  6
CONTINUOUS
 62
     0
100
AcDbMText
 10
0.9464574670095658
 20
-43.47981437321607
 30
0.0
 40
2.5
 41
0.0
 71
     1
 72
     1
  1
{固有エネルギー\P消費効率}
1001
ACAD
1000
ACAD_MTEXT_DEFINED_HEIGHT_BEGIN
1070
    46
1040
6.964166666666667
1000
ACAD_MTEXT_DEFINED_HEIGHT_END
  0
MTEXT
  5
A37
330
A15
100
AcDbEntity
  8
中心線
  6
CONTINUOUS
 62
     0
100
AcDbMText
 10
44.56195352326313
 20
-45.90638770439762
 30
0.0
 40
2.5
 41
0.0
 71
     1
 72
     1
  1
{159.1lm/W}
1001
ACAD
1000
ACAD_MTEXT_DEFINED_HEIGHT_BEGIN
1070
    46
1040
2.6125
1000
ACAD_MTEXT_DEFINED_HEIGHT_END
  0
MTEXT
  5
A38
330
A15
100
AcDbEntity
  8
中心線
  6
CONTINUOUS
 62
     0
100
AcDbMText
 10
1.376449567723341
 20
-55.81212915974839
 30
0.0
 40
2.5
 41
0.0
 71
     1
 72
     1
  1
力率
  0
MTEXT
  5
A39
330
A15
100
AcDbEntity
  8
中心線
  6
CONTINUOUS
 62
     0
100
AcDbMText
 10
49.52686564782334
 20
-55.81212915974839
 30
0.0
 40
2.5
 41
0.0
 71
     1
 72
     1
  1
99%
  0
MTEXT
  5
A3A
330
A15
100
AcDbEntity
  8
中心線
  6
CONTINUOUS
 62
     0
100
AcDbMText
 10
1.376449567723341
 20
-62.58189110434839
 30
0.0
 40
2.5
 41
0.0
 71
     1
 72
     1
  1
相関色温度
  0
MTEXT
  5
A3B
330
A15
100
AcDbEntity
  8
中心線
  6
CONTINUOUS
 62
     0
100
AcDbMText
 10
46.87756025942332
 20
-62.58189110434839
 30
0.0
 40
2.5
 41
0.0
 71
     1
 72
     1
  1
5,000K
  0
MTEXT
  5
A3C
330
A15
100
AcDbEntity
  8
中心線
  6
CONTINUOUS
 62
     0
100
AcDbMText
 10
1.376449567723341
 20
-69.35165304884839
 30
0.0
 40
2.5
 41
0.0
 71
     1
 72
     1
  1
平均演色評価数
  0
MTEXT
  5
A3D
330
A15
100
AcDbEntity
  8
中心線
  6
CONTINUOUS
 62
     0
100
AcDbMText
 10
48.30186586612336
 20
-69.35165304884839
 30
0.0
 40
2.5
 41
0.0
 71
     1
 72
     1
  1
Ra70
  0
MTEXT
  5
A3E
330
A15
100
AcDbEntity
  8
中心線
  6
CONTINUOUS
 62
     0
100
AcDbMText
 10
1.15733717579252
 20
-75.76509109964408
 30
0.0
 40
2.5
 41
0.0
 71
     1
 72
     1
  1
配光角度
  0
MTEXT
  5
A3F
330
A15
100
AcDbEntity
  8
中心線
  6
CONTINUOUS
 62
     0
100
AcDbMText
 10
48.95693027219318
 20
-75.64470458375106
 30
0.0
 40
2.5
 41
0.0
 71
     1
 72
     1
  1
{115°}
1001
ACAD
1000
ACAD_MTEXT_DEFINED_HEIGHT_BEGIN
1070
    46
1040
2.5
1000
ACAD_MTEXT_DEFINED_HEIGHT_END
  0
MTEXT
  5
A40
330
A15
100
AcDbEntity
  8
中心線
  6
CONTINUOUS
 62
     0
100
AcDbMText
 10
1.15733717579252
 20
-82.54066276974405
 30
0.0
 40
2.5
 41
0.0
 71
     1
 72
     1
  1
レンズ仕様
  0
MTEXT
  5
A41
330
A15
100
AcDbEntity
  8
中心線
  6
CONTINUOUS
 62
     0
100
AcDbMText
 10
48.28935062349251
 20
-82.54066276974405
 30
0.0
 40
2.5
 41
0.0
 71
     1
 72
     1
  1
{透明}
1001
ACAD
1000
ACAD_MTEXT_DEFINED_HEIGHT_BEGIN
1070
    46
1040
2.8125
1000
ACAD_MTEXT_DEFINED_HEIGHT_END
  0
MTEXT
  5
A42
330
A15
100
AcDbEntity
  8
中心線
  6
CONTINUOUS
 62
     0
100
AcDbMText
 10
1.15733717579252
 20
-89.31623443984407
 30
0.0
 40
2.5
 41
0.0
 71
     1
 72
     1
  1
動作保証温度
  0
MTEXT
  5
A43
330
A15
100
AcDbEntity
  8
中心線
  6
CONTINUOUS
 62
     0
100
AcDbMText
 10
42.17893436389255
 20
-89.31623443984407
 30
0.0
 40
2.5
 41
0.0
 71
     1
 72
     1
  1
-20～+60℃
  0
MTEXT
  5
A44
330
A15
100
AcDbEntity
  8
中心線
  6
CONTINUOUS
 62
     0
100
AcDbMText
 10
1.15733717579252
 20
-96.06091035734406
 30
0.0
 40
2.5
 41
0.0
 71
     1
 72
     1
  1
定格寿命
  0
MTEXT
  5
A45
330
A15
100
AcDbEntity
  8
中心線
  6
CONTINUOUS
 62
     0
100
AcDbMText
 10
45.8393510600925
 20
-96.06091035734406
 30
0.0
 40
2.5
 41
0.0
 71
     1
 72
     1
  1
{60,000h}
1001
ACAD
1000
ACAD_MTEXT_DEFINED_HEIGHT_BEGIN
1070
    46
1040
2.84
1000
ACAD_MTEXT_DEFINED_HEIGHT_END
  0
MTEXT
  5
A46
330
A15
100
AcDbEntity
  8
中心線
  6
CONTINUOUS
 62
     0
100
AcDbMText
 10
0.7191123919308211
 20
-110.4745199925233
 30
0.0
 40
2.5
 41
0.0
 71
     1
 72
     1
  1
{適合電源}
1001
ACAD
1000
ACAD_MTEXT_DEFINED_HEIGHT_BEGIN
1070
    46
1040
2.8275
1000
ACAD_MTEXT_DEFINED_HEIGHT_END
  0
MTEXT
  5
A47
330
A15
100
AcDbEntity
  8
中心線
  6
CONTINUOUS
 62
     0
100
AcDbMText
 10
42.66450868176452
 20
-110.3332368110258
 30
0.0
 40
2.5
 41
0.0
 71
     1
 72
     1
  1
{NSP400-90}
1001
ACAD
1000
ACAD_MTEXT_DEFINED_HEIGHT_BEGIN
1070
    46
1040
2.5
1000
ACAD_MTEXT_DEFINED_HEIGHT_END
  0
MTEXT
  5
A48
330
A15
100
AcDbEntity
  8
中心線
  6
CONTINUOUS
 62
     0
100
AcDbMText
 10
1.15733717579252
 20
-103.2916192910616
 30
0.0
 40
2.5
 41
0.0
 71
     1
 72
     1
  1
{IP保護等級}
1001
ACAD
1000
ACAD_MTEXT_DEFINED_HEIGHT_BEGIN
1070
    46
1040
2.8275
1000
ACAD_MTEXT_DEFINED_HEIGHT_END
  0
MTEXT
  5
A49
330
A15
100
AcDbEntity
  8
中心線
  6
CONTINUOUS
 62
     0
100
AcDbMText
 10
47.58397910662819
 20
-103.3724762247838
 30
0.0
 40
2.5
 41
0.0
 71
     1
 72
     1
  1
{IP65}
1001
ACAD
1000
ACAD_MTEXT_DEFINED_HEIGHT_BEGIN
1070
    46
1040
2.5
1000
ACAD_MTEXT_DEFINED_HEIGHT_END
  0
ENDBLK
  5
A4A
330
A15
100
AcDbEntity
  8
0
100
AcDbBlockEnd
  0
BLOCK
  5
A8C
330
A8B
100
AcDbEntity
  8
0
100
AcDbBlockBegin
  2
SW_TABLEANNOTATION_1234561
 70
     0
 10
0.0
 20
0.0
 30
0.0
  3
SW_TABLEANNOTATION_1234561
  1

  0
LINE
  5
A8E
330
A8B
100
AcDbEntity
  8
中心線
  6
CONTINUOUS
 62
     0
100
AcDbLine
 10
0.0000000000000568
 20
0.0
 30
0.0
 11
0.0000000000000568
 21
-115.1931699311
 31
0.0
  0
LINE
  5
A8F
330
A8B
100
AcDbEntity
  8
中心線
  6
CONTINUOUS
 62
     0
100
AcDbLine
 10
0.0000000000000568
 20
-115.1931699311
 30
0.0
 11
73.83597331760006
 21
-115.1931699311
 31
0.0
  0
LINE
  5
A90
330
A8B
100
AcDbEntity
  8
中心線
  6
CONTINUOUS
 62
     0
100
AcDbLine
 10
73.83597331760006
 20
-115.1931699311
 30
0.0
 11
73.83597331760006
 21
0.0
 31
0.0
  0
LINE
  5
A91
330
A8B
100
AcDbEntity
  8
中心線
  6
CONTINUOUS
 62
     0
100
AcDbLine
 10
73.83597331760006
 20
0.0
 30
0.0
 11
0.0000000000000568
 21
0.0
 31
0.0
  0
LINE
  5
A92
330
A8B
100
AcDbEntity
  8
中心線
  6
CONTINUOUS
 62
     0
100
AcDbLine
 10
29.57527556780013
 20
-6.744675917599977
 30
0.0
 11
29.49879348696686
 21
-115.2439805779781
 31
0.0
  0
LINE
  5
A93
330
A8B
100
AcDbEntity
  8
中心線
  6
CONTINUOUS
 62
     0
100
AcDbLine
 10
0.0000000000000568
 20
-6.744675917599977
 30
0.0
 11
73.83597331760006
 21
-6.744675917599977
 31
0.0
  0
LINE
  5
A94
330
A8B
100
AcDbEntity
  8
中心線
  6
CONTINUOUS
 62
     0
100
AcDbLine
 10
0.0000000000000568
 20
-13.48935183510002
 30
0.0
 11
73.83597331760006
 21
-13.48935183510002
 31
0.0
  0
LINE
  5
A95
330
A8B
100
AcDbEntity
  8
中心線
  6
CONTINUOUS
 62
     0
100
AcDbLine
 10
0.0000000000000568
 20
-20.2340277527
 30
0.0
 11
73.83597331760006
 21
-20.2340277527
 31
0.0
  0
LINE
  5
A96
330
A8B
100
AcDbEntity
  8
中心線
  6
CONTINUOUS
 62
     0
100
AcDbLine
 10
0.0000000000000568
 20
-26.97870367019999
 30
0.0
 11
73.83597331760006
 21
-26.97870367019999
 31
0.0
  0
LINE
  5
A97
330
A8B
100
AcDbEntity
  8
中心線
  6
CONTINUOUS
 62
     0
100
AcDbLine
 10
0.0000000000000568
 20
-33.72337958779997
 30
0.0
 11
73.83597331760006
 21
-33.72337958779997
 31
0.0
  0
LINE
  5
A98
330
A8B
100
AcDbEntity
  8
中心線
  6
CONTINUOUS
 62
     0
100
AcDbLine
 10
0.0000000000000568
 20
-40.46805550530001
 30
0.0
 11
73.83597331760006
 21
-40.46805550530001
 31
0.0
  0
LINE
  5
A99
330
A8B
100
AcDbEntity
  8
中心線
  6
CONTINUOUS
 62
     0
100
AcDbLine
 10
0.0000000000000568
 20
-53.95740734039998
 30
0.0
 11
73.83597331760006
 21
-53.95740734039998
 31
0.0
  0
LINE
  5
A9A
330
A8B
100
AcDbEntity
  8
中心線
  6
CONTINUOUS
 62
     0
100
AcDbLine
 10
0.0000000000000568
 20
-60.75225531199999
 30
0.0
 11
73.83597331760006
 21
-60.75225531199999
 31
0.0
  0
LINE
  5
A9B
330
A8B
100
AcDbEntity
  8
中心線
  6
CONTINUOUS
 62
     0
100
AcDbLine
 10
0.0000000000000568
 20
-67.49693122960002
 30
0.0
 11
73.83597331760006
 21
-67.49693122960002
 31
0.0
  0
LINE
  5
A9C
330
A8B
100
AcDbEntity
  8
中心線
  6
CONTINUOUS
 62
     0
100
AcDbLine
 10
0.0000000000000568
 20
-74.24160714710007
 30
0.0
 11
73.83597331760006
 21
-74.24160714710007
 31
0.0
  0
LINE
  5
A9D
330
A8B
100
AcDbEntity
  8
中心線
  6
CONTINUOUS
 62
     0
100
AcDbLine
 10
0.0000000000000568
 20
-81.40799883830002
 30
0.0
 11
73.83597331760006
 21
-81.40799883830002
 31
0.0
  0
LINE
  5
A9E
330
A8B
100
AcDbEntity
  8
中心線
  6
CONTINUOUS
 62
     0
100
AcDbLine
 10
0.0000000000000568
 20
-88.15267475590002
 30
0.0
 11
73.83597331760006
 21
-88.15267475590002
 31
0.0
  0
LINE
  5
A9F
330
A8B
100
AcDbEntity
  8
中心線
  6
CONTINUOUS
 62
     0
100
AcDbLine
 10
0.0000000000000568
 20
-94.95914217850003
 30
0.0
 11
73.83597331760006
 21
-94.95914217850003
 31
0.0
  0
LINE
  5
AA0
330
A8B
100
AcDbEntity
  8
中心線
  6
CONTINUOUS
 62
     0
100
AcDbLine
 10
0.0000000000000568
 20
-101.703818096
 30
0.0
 11
73.83597331760006
 21
-101.703818096
 31
0.0
  0
LINE
  5
AA1
330
A8B
100
AcDbEntity
  8
中心線
  6
CONTINUOUS
 62
     0
100
AcDbLine
 10
0.0000000000000568
 20
-108.4484940136
 30
0.0
 11
73.83597331760006
 21
-108.4484940136
 31
0.0
  0
MTEXT
  5
AA2
330
A8B
100
AcDbEntity
  8
中心線
  6
CONTINUOUS
 62
     0
100
AcDbMText
 10
29.20898945276178
 20
-2.026025978923315
 30
0.0
 40
2.5
 41
0.0
 71
     1
 72
     1
  1
本体仕様
  0
MTEXT
  5
AA3
330
A8B
100
AcDbEntity
  8
中心線
  6
CONTINUOUS
 62
     0
100
AcDbMText
 10
0.938224783861699
 20
-8.770701896523349
 30
0.0
 40
2.5
 41
0.0
 71
     1
 72
     1
  1
型式
  0
MTEXT
  5
AA4
330
A8B
100
AcDbEntity
  8
中心線
  6
CONTINUOUS
 62
     0
100
AcDbMText
 10
42.77848186765988
 20
-9.156055673351943
 30
0.0
 40
2.5
 41
0.0
 71
     1
 72
     1
  1
{NSC110-50N}
1001
ACAD
1000
ACAD_MTEXT_DEFINED_HEIGHT_BEGIN
1070
    46
1040
4.847534228594423
1000
ACAD_MTEXT_DEFINED_HEIGHT_END
  0
MTEXT
  5
AA5
330
A8B
100
AcDbEntity
  8
中心線
  6
CONTINUOUS
 62
     0
100
AcDbMText
 10
0.938224783861699
 20
-15.26320800272333
 30
0.0
 40
2.5
 41
0.0
 71
     1
 72
     1
  1
{質量}
1001
ACAD
1000
ACAD_MTEXT_DEFINED_HEIGHT_BEGIN
1070
    46
1040
3.5
1000
ACAD_MTEXT_DEFINED_HEIGHT_END
  0
MTEXT
  5
AA6
330
A8B
100
AcDbEntity
  8
中心線
  6
CONTINUOUS
 62
     0
100
AcDbMText
 10
48.15044652566201
 20
-15.26320800272333
 30
0.0
 40
2.5
 41
0.0
 71
     1
 72
     1
  1
{780g}
1001
ACAD
1000
ACAD_MTEXT_DEFINED_HEIGHT_BEGIN
1070
    46
1040
5.783108334713146
1000
ACAD_MTEXT_DEFINED_HEIGHT_END
  0
MTEXT
  5
AA7
330
A8B
100
AcDbEntity
  8
中心線
  6
CONTINUOUS
 62
     0
100
AcDbMText
 10
0.938224783861699
 20
-22.26005373162337
 30
0.0
 40
2.5
 41
0.0
 71
     1
 72
     1
  1
{入力電圧}
1001
ACAD
1000
ACAD_MTEXT_DEFINED_HEIGHT_BEGIN
1070
    46
1040
2.685
1000
ACAD_MTEXT_DEFINED_HEIGHT_END
  0
MTEXT
  5
AA8
330
A8B
100
AcDbEntity
  8
中心線
  6
CONTINUOUS
 62
     0
100
AcDbMText
 10
41.88405467665973
 20
-22.39357810015071
 30
0.0
 40
2.5
 41
0.0
 71
     1
 72
     1
  1
{AC90V～230V}
1001
ACAD
1000
ACAD_MTEXT_DEFINED_HEIGHT_BEGIN
1070
    46
1040
4.847534228594423
1000
ACAD_MTEXT_DEFINED_HEIGHT_END
  0
MTEXT
  5
AA9
330
A8B
100
AcDbEntity
  8
中心線
  6
CONTINUOUS
 62
     0
100
AcDbMText
 10
0.938224783861699
 20
-29.00472964912336
 30
0.0
 40
2.5
 41
0.0
 71
     1
 72
     1
  1
消費電力
  0
MTEXT
  5
AAA
330
A8B
100
AcDbEntity
  8
中心線
  6
CONTINUOUS
 62
     0
100
AcDbMText
 10
48.59523827106193
 20
-29.00472964912336
 30
0.0
 40
2.5
 41
0.0
 71
     1
 72
     1
  1
{32.0W}
1001
ACAD
1000
ACAD_MTEXT_DEFINED_HEIGHT_BEGIN
1070
    46
1040
4.847534228594422
1000
ACAD_MTEXT_DEFINED_HEIGHT_END
  0
MTEXT
  5
AAB
330
A8B
100
AcDbEntity
  8
中心線
  6
CONTINUOUS
 62
     0
100
AcDbMText
 10
0.938224783861699
 20
-35.74940556672334
 30
0.0
 40
2.5
 41
0.0
 71
     1
 72
     1
  1
全光束
  0
MTEXT
  5
AAC
330
A8B
100
AcDbEntity
  8
中心線
  6
CONTINUOUS
 62
     0
100
AcDbMText
 10
47.91840260157721
 20
-35.65144252033161
 30
0.0
 40
2.5
 41
0.0
 71
     1
 72
     1
  1
{4000lm}
1001
ACAD
1000
ACAD_MTEXT_DEFINED_HEIGHT_BEGIN
1070
    46
1040
4.847534228594423
1000
ACAD_MTEXT_DEFINED_HEIGHT_END
  0
MTEXT
  5
AAD
330
A8B
100
AcDbEntity
  8
中心線
  6
CONTINUOUS
 62
     0
100
AcDbMText
 10
0.9464574670096795
 20
-43.47981437321613
 30
0.0
 40
2.5
 41
0.0
 71
     1
 72
     1
  1
{固有エネルギー\P消費効率}
1001
ACAD
1000
ACAD_MTEXT_DEFINED_HEIGHT_BEGIN
1070
    46
1040
6.964166666666667
1000
ACAD_MTEXT_DEFINED_HEIGHT_END
  0
MTEXT
  5
AAE
330
A8B
100
AcDbEntity
  8
中心線
  6
CONTINUOUS
 62
     0
100
AcDbMText
 10
44.56195352326336
 20
-45.90638770439762
 30
0.0
 40
2.5
 41
0.0
 71
     1
 72
     1
  1
{125.0lm/W}
1001
ACAD
1000
ACAD_MTEXT_DEFINED_HEIGHT_BEGIN
1070
    46
1040
5.065673268881171
1000
ACAD_MTEXT_DEFINED_HEIGHT_END
  0
MTEXT
  5
AAF
330
A8B
100
AcDbEntity
  8
中心線
  6
CONTINUOUS
 62
     0
100
AcDbMText
 10
1.376449567723398
 20
-55.81212915974845
 30
0.0
 40
2.5
 41
0.0
 71
     1
 72
     1
  1
力率
  0
MTEXT
  5
AB0
330
A8B
100
AcDbEntity
  8
中心線
  6
CONTINUOUS
 62
     0
100
AcDbMText
 10
31.66796168223186
 20
-55.59945517863838
 30
0.0
 40
2.5
 41
0.0
 71
     1
 72
     1
  1
{100V時：88%　200V時：85％
1001
ACAD
1000
ACAD_MTEXT_DEFINED_HEIGHT_BEGIN
1070
    46
1040
5.424390801797159
1000
ACAD_MTEXT_DEFINED_HEIGHT_END
  0
MTEXT
  5
AB1
330
A8B
100
AcDbEntity
  8
中心線
  6
CONTINUOUS
 62
     0
100
AcDbMText
 10
1.376449567723398
 20
-62.58189110434836
 30
0.0
 40
2.5
 41
0.0
 71
     1
 72
     1
  1
相関色温度
  0
MTEXT
  5
AB2
330
A8B
100
AcDbEntity
  8
中心線
  6
CONTINUOUS
 62
     0
100
AcDbMText
 10
46.87756025942343
 20
-62.58189110434836
 30
0.0
 40
2.5
 41
0.0
 71
     1
 72
     1
  1
5,000K
  0
MTEXT
  5
AB3
330
A8B
100
AcDbEntity
  8
中心線
  6
CONTINUOUS
 62
     0
100
AcDbMText
 10
1.376449567723398
 20
-69.35165304884845
 30
0.0
 40
2.5
 41
0.0
 71
     1
 72
     1
  1
平均演色評価数
  0
MTEXT
  5
AB4
330
A8B
100
AcDbEntity
  8
中心線
  6
CONTINUOUS
 62
     0
100
AcDbMText
 10
48.30186586612348
 20
-69.35165304884845
 30
0.0
 40
2.5
 41
0.0
 71
     1
 72
     1
  1
{Ra80}
1001
ACAD
1000
ACAD_MTEXT_DEFINED_HEIGHT_BEGIN
1070
    46
1040
4.847534228594423
1000
ACAD_MTEXT_DEFINED_HEIGHT_END
  0
MTEXT
  5
AB5
330
A8B
100
AcDbEntity
  8
中心線
  6
CONTINUOUS
 62
     0
100
AcDbMText
 10
1.157337175792634
 20
-75.76509109964411
 30
0.0
 40
2.5
 41
0.0
 71
     1
 72
     1
  1
配光角度
  0
MTEXT
  5
AB6
330
A8B
100
AcDbEntity
  8
中心線
  6
CONTINUOUS
 62
     0
100
AcDbMText
 10
48.95693027219323
 20
-75.64470458375109
 30
0.0
 40
2.5
 41
0.0
 71
     1
 72
     1
  1
{180°}
1001
ACAD
1000
ACAD_MTEXT_DEFINED_HEIGHT_BEGIN
1070
    46
1040
4.847534228594423
1000
ACAD_MTEXT_DEFINED_HEIGHT_END
  0
MTEXT
  5
AB7
330
A8B
100
AcDbEntity
  8
中心線
  6
CONTINUOUS
 62
     0
100
AcDbMText
 10
1.157337175792634
 20
-82.54066276974405
 30
0.0
 40
2.5
 41
0.0
 71
     1
 72
     1
  1
{口金}
1001
ACAD
1000
ACAD_MTEXT_DEFINED_HEIGHT_BEGIN
1070
    46
1040
5.177166556138844
1000
ACAD_MTEXT_DEFINED_HEIGHT_END
  0
MTEXT
  5
AB8
330
A8B
100
AcDbEntity
  8
中心線
  6
CONTINUOUS
 62
     0
100
AcDbMText
 10
48.48284941298908
 20
-83.144263574342
 30
0.0
 40
2.5
 41
0.0
 71
     1
 72
     1
  1
{R17d}
1001
ACAD
1000
ACAD_MTEXT_DEFINED_HEIGHT_BEGIN
1070
    46
1040
4.847534228594423
1000
ACAD_MTEXT_DEFINED_HEIGHT_END
  0
MTEXT
  5
AB9
330
A8B
100
AcDbEntity
  8
中心線
  6
CONTINUOUS
 62
     0
100
AcDbMText
 10
1.157337175792634
 20
-89.3162344398441
 30
0.0
 40
2.5
 41
0.0
 71
     1
 72
     1
  1
動作保証温度
  0
MTEXT
  5
ABA
330
A8B
100
AcDbEntity
  8
中心線
  6
CONTINUOUS
 62
     0
100
AcDbMText
 10
45.24264738295
 20
-89.20816509095019
 30
0.0
 40
2.5
 41
0.0
 71
     1
 72
     1
  1
{0～40℃}
1001
ACAD
1000
ACAD_MTEXT_DEFINED_HEIGHT_BEGIN
1070
    46
1040
4.847534228594423
1000
ACAD_MTEXT_DEFINED_HEIGHT_END
  0
MTEXT
  5
ABB
330
A8B
100
AcDbEntity
  8
中心線
  6
CONTINUOUS
 62
     0
100
AcDbMText
 10
1.157337175792634
 20
-96.06091035734408
 30
0.0
 40
2.5
 41
0.0
 71
     1
 72
     1
  1
定格寿命
  0
MTEXT
  5
ABC
330
A8B
100
AcDbEntity
  8
中心線
  6
CONTINUOUS
 62
     0
100
AcDbMText
 10
45.83935106009261
 20
-96.06091035734408
 30
0.0
 40
2.5
 41
0.0
 71
     1
 72
     1
  1
{40,000h}
1001
ACAD
1000
ACAD_MTEXT_DEFINED_HEIGHT_BEGIN
1070
    46
1040
5.506798883683264
1000
ACAD_MTEXT_DEFINED_HEIGHT_END
  0
MTEXT
  5
ABD
330
A8B
100
AcDbEntity
  8
中心線
  6
CONTINUOUS
 62
     0
100
AcDbMText
 10
0.719112391930878
 20
-110.4745199925233
 30
0.0
 40
2.5
 41
0.0
 71
     1
 72
     1
  1
{配線方法}
1001
ACAD
1000
ACAD_MTEXT_DEFINED_HEIGHT_BEGIN
1070
    46
1040
5.506798883683264
1000
ACAD_MTEXT_DEFINED_HEIGHT_END
  0
MTEXT
  5
ABE
330
A8B
100
AcDbEntity
  8
中心線
  6
CONTINUOUS
 62
     0
100
AcDbMText
 10
40.78189103856096
 20
-110.0379994016239
 30
0.0
 40
2.5
 41
0.0
 71
     1
 72
     1
  1
{左右独立給電}
1001
ACAD
1000
ACAD_MTEXT_DEFINED_HEIGHT_BEGIN
1070
    46
1040
5.453476007168726
1000
ACAD_MTEXT_DEFINED_HEIGHT_END
  0
MTEXT
  5
ABF
330
A8B
100
AcDbEntity
  8
中心線
  6
CONTINUOUS
 62
     0
100
AcDbMText
 10
1.157337175792748
 20
-103.2916192910616
 30
0.0
 40
2.5
 41
0.0
 71
     1
 72
     1
  1
{電源}
1001
ACAD
1000
ACAD_MTEXT_DEFINED_HEIGHT_BEGIN
1070
    46
1040
5.482561212540292
1000
ACAD_MTEXT_DEFINED_HEIGHT_END
  0
MTEXT
  5
AC0
330
A8B
100
AcDbEntity
  8
中心線
  6
CONTINUOUS
 62
     0
100
AcDbMText
 10
47.00935707050587
 20
-103.3886920645504
 30
0.0
 40
2.5
 41
0.0
 71
     1
 72
     1
  1
{内蔵型}
1001
ACAD
1000
ACAD_MTEXT_DEFINED_HEIGHT_BEGIN
1070
    46
1040
5.259574638024949
1000
ACAD_MTEXT_DEFINED_HEIGHT_END
  0
ENDBLK
  5
A8D
330
A8B
100
AcDbEntity
  8
0
100
AcDbBlockEnd
  0
BLOCK
  5
BC2
330
BC1
100
AcDbEntity
  8
0
100
AcDbBlockBegin
  2
*D64
 70
     1
 10
0.0
 20
0.0
 30
0.0
  3
*D64
  1

  0
LINE
  5
BC3
330
BC1
100
AcDbEntity
  8
20_DIM
 62
     0
100
AcDbLine
 10
140.0880952380994
 20
84.9669290306083
 30
0.0
 11
140.0880952380994
 21
27.43748980023884
 31
0.0
  0
LINE
  5
BC4
330
BC1
100
AcDbEntity
  8
20_DIM
 62
     0
100
AcDbLine
 10
738.0880952380994
 20
84.9669290306083
 30
0.0
 11
738.0880952380994
 21
27.43748980023884
 31
0.0
  0
LINE
  5
BC5
330
BC1
100
AcDbEntity
  8
20_DIM
 62
     0
100
AcDbLine
 10
148.0880952380994
 20
28.43748980023884
 30
0.0
 11
730.0880952380994
 21
28.43748980023884
 31
0.0
  0
INSERT
  5
BC6
330
BC1
100
AcDbEntity
  8
20_DIM
 62
     0
100
AcDbBlockReference
  2
_OPEN
 10
140.0880952380994
 20
28.43748980023884
 30
0.0
 41
8.0
 42
8.0
 43
8.0
 50
180.0
  0
INSERT
  5
BC7
330
BC1
100
AcDbEntity
  8
20_DIM
 62
     0
100
AcDbBlockReference
  2
_OPEN
 10
738.0880952380994
 20
28.43748980023884
 30
0.0
 41
8.0
 42
8.0
 43
8.0
  0
MTEXT
  5
BC8
330
BC1
100
AcDbEntity
  8
20_DIM
 62
     0
100
AcDbMText
 10
439.0880952380994
 20
33.45748980023884
 30
0.0
 40
8.0
 41
0.0
 71
     5
 72
     1
  1
1198±1.5
  0
POINT
  5
BC9
330
BC1
100
AcDbEntity
  8
DEFPOINTS
 62
     0
100
AcDbPoint
 10
140.0880952380994
 20
87.9669290306083
 30
0.0
  0
POINT
  5
BCA
330
BC1
100
AcDbEntity
  8
DEFPOINTS
 62
     0
100
AcDbPoint
 10
738.0880952380994
 20
87.9669290306083
 30
0.0
  0
POINT
  5
BCB
330
BC1
100
AcDbEntity
  8
DEFPOINTS
 62
     0
100
AcDbPoint
 10
738.0880952380994
 20
28.43748980023884
 30
0.0
  0
ENDBLK
  5
BCC
330
BC1
100
AcDbEntity
  8
0
100
AcDbBlockEnd
  0
BLOCK
  5
BCF
330
BCE
100
AcDbEntity
  8
0
100
AcDbBlockBegin
  2
*D65
 70
     1
 10
0.0
 20
0.0
 30
0.0
  3
*D65
  1

  0
LINE
  5
BD0
330
BCE
100
AcDbEntity
  8
20_DIM
 62
     0
100
AcDbLine
 10
240.7448741641692
 20
117.9669290306083
 30
0.0
 11
240.7448741641692
 21
176.3063576020388
 31
0.0
  0
LINE
  5
BD1
330
BCE
100
AcDbEntity
  8
20_DIM
 62
     0
100
AcDbLine
 10
240.7448741641692
 20
109.9669290306083
 30
0.0
 11
240.7448741641692
 21
94.9669290306083
 31
0.0
  0
INSERT
  5
BD2
330
BCE
100
AcDbEntity
  8
20_DIM
 62
     0
100
AcDbBlockReference
  2
_OPEN
 10
240.7448741641692
 20
117.9669290306083
 30
0.0
 41
8.0
 42
8.0
 43
8.0
 50
90.0
  0
INSERT
  5
BD3
330
BCE
100
AcDbEntity
  8
20_DIM
 62
     0
100
AcDbBlockReference
  2
_OPEN
 10
240.7448741641692
 20
86.9669290306083
 30
0.0
 41
8.0
 42
8.0
 43
8.0
 50
270.0
  0
MTEXT
  5
BD4
330
BCE
100
AcDbEntity
  8
20_DIM
 62
     0
100
AcDbMText
 10
234.5408741641692
 20
152.3383576020387
 30
0.0
 40
8.0
 41
0.0
 71
     5
 72
     1
  1
φ31%%p0.5
 11
0.0
 21
1.0
 31
0.0
  0
POINT
  5
BD5
330
BCE
100
AcDbEntity
  8
DEFPOINTS
 62
     0
100
AcDbPoint
 10
160.0880952380994
 20
117.9669290306083
 30
0.0
  0
POINT
  5
BD6
330
BCE
100
AcDbEntity
  8
DEFPOINTS
 62
     0
100
AcDbPoint
 10
160.0880952380994
 20
86.9669290306083
 30
0.0
  0
POINT
  5
BD7
330
BCE
100
AcDbEntity
  8
DEFPOINTS
 62
     0
100
AcDbPoint
 10
240.7448741641692
 20
86.9669290306083
 30
0.0
  0
ENDBLK
  5
BD8
330
BCE
100
AcDbEntity
  8
0
100
AcDbBlockEnd
  0
BLOCK
  5
BDB
330
BDA
100
AcDbEntity
  8
0
100
AcDbBlockBegin
  2
*D66
 70
     1
 10
0.0
 20
0.0
 30
0.0
  3
*D66
  1

  0
LINE
  5
BDC
330
BDA
100
AcDbEntity
  8
20_DIM
 62
     0
100
AcDbLine
 10
146.0880952380994
 20
118.9669290306083
 30
0.0
 11
119.69967813111
 21
118.9669290306083
 31
0.0
  0
LINE
  5
BDD
330
BDA
100
AcDbEntity
  8
20_DIM
 62
     0
100
AcDbLine
 10
146.0880952380994
 20
85.9669290306083
 30
0.0
 11
119.69967813111
 21
85.9669290306083
 31
0.0
  0
LINE
  5
BDE
330
BDA
100
AcDbEntity
  8
20_DIM
 62
     0
100
AcDbLine
 10
120.69967813111
 20
118.9669290306083
 30
0.0
 11
120.69967813111
 21
177.3063576020388
 31
0.0
  0
LINE
  5
BDF
330
BDA
100
AcDbEntity
  8
20_DIM
 62
     0
100
AcDbLine
 10
120.69967813111
 20
110.9669290306083
 30
0.0
 11
120.69967813111
 21
93.9669290306083
 31
0.0
  0
INSERT
  5
BE0
330
BDA
100
AcDbEntity
  8
20_DIM
 62
     0
100
AcDbBlockReference
  2
_OPEN
 10
120.69967813111
 20
118.9669290306083
 30
0.0
 41
8.0
 42
8.0
 43
8.0
 50
90.0
  0
INSERT
  5
BE1
330
BDA
100
AcDbEntity
  8
20_DIM
 62
     0
100
AcDbBlockReference
  2
_OPEN
 10
120.69967813111
 20
85.9669290306083
 30
0.0
 41
8.0
 42
8.0
 43
8.0
 50
270.0
  0
MTEXT
  5
BE2
330
BDA
100
AcDbEntity
  8
20_DIM
 62
     0
100
AcDbMText
 10
114.49567813111
 20
153.3383576020387
 30
0.0
 40
8.0
 41
0.0
 71
     5
 72
     1
  1
φ33%%p0.3
 11
0.0
 21
1.0
 31
0.0
  0
POINT
  5
BE3
330
BDA
100
AcDbEntity
  8
DEFPOINTS
 62
     0
100
AcDbPoint
 10
149.0880952380994
 20
118.9669290306083
 30
0.0
  0
POINT
  5
BE4
330
BDA
100
AcDbEntity
  8
DEFPOINTS
 62
     0
100
AcDbPoint
 10
149.0880952380994
 20
85.9669290306083
 30
0.0
  0
POINT
  5
BE5
330
BDA
100
AcDbEntity
  8
DEFPOINTS
 62
     0
100
AcDbPoint
 10
120.69967813111
 20
85.9669290306083
 30
0.0
  0
ENDBLK
  5
BE6
330
BDA
100
AcDbEntity
  8
0
100
AcDbBlockEnd
  0
BLOCK
  5
BE9
330
BE8
100
AcDbEntity
  8
0
100
AcDbBlockBegin
  2
*D67
 70
     1
 10
0.0
 20
0.0
 30
0.0
  3
*D67
  1

  0
LINE
  5
BEA
330
BE8
100
AcDbEntity
  8
20_DIM
 62
     0
100
AcDbLine
 10
140.0880952380994
 20
84.9669290306083
 30
0.0
 11
140.0880952380994
 21
42.43748980022792
 31
0.0
  0
LINE
  5
BEB
330
BE8
100
AcDbEntity
  8
20_DIM
 62
     0
100
AcDbLine
 10
160.0880952380994
 20
82.9669290306083
 30
0.0
 11
160.0880952380994
 21
42.43748980022792
 31
0.0
  0
LINE
  5
BEC
330
BE8
100
AcDbEntity
  8
20_DIM
 62
     0
100
AcDbLine
 10
140.0880952380994
 20
43.43748980022792
 30
0.0
 11
208.9240952381005
 21
43.43748980022792
 31
0.0
  0
LINE
  5
BED
330
BE8
100
AcDbEntity
  8
20_DIM
 62
     0
100
AcDbLine
 10
148.0880952380994
 20
43.43748980022792
 30
0.0
 11
152.0880952380994
 21
43.43748980022792
 31
0.0
  0
INSERT
  5
BEE
330
BE8
100
AcDbEntity
  8
20_DIM
 62
     0
100
AcDbBlockReference
  2
_OPEN
 10
140.0880952380994
 20
43.43748980022792
 30
0.0
 41
8.0
 42
8.0
 43
8.0
 50
180.0
  0
INSERT
  5
BEF
330
BE8
100
AcDbEntity
  8
20_DIM
 62
     0
100
AcDbBlockReference
  2
_OPEN
 10
160.0880952380994
 20
43.43748980022792
 30
0.0
 41
8.0
 42
8.0
 43
8.0
  0
MTEXT
  5
BF0
330
BE8
100
AcDbEntity
  8
20_DIM
 62
     0
100
AcDbMText
 10
189.8880952381005
 20
48.45748980022793
 30
0.0
 40
8.0
 41
0.0
 71
     5
 72
     1
  1
20%%p0.3
  0
POINT
  5
BF1
330
BE8
100
AcDbEntity
  8
DEFPOINTS
 62
     0
100
AcDbPoint
 10
140.0880952380994
 20
87.9669290306083
 30
0.0
  0
POINT
  5
BF2
330
BE8
100
AcDbEntity
  8
DEFPOINTS
 62
     0
100
AcDbPoint
 10
160.0880952380994
 20
85.9669290306083
 30
0.0
  0
POINT
  5
BF3
330
BE8
100
AcDbEntity
  8
DEFPOINTS
 62
     0
100
AcDbPoint
 10
160.0880952380994
 20
43.43748980022792
 30
0.0
  0
ENDBLK
  5
BF4
330
BE8
100
AcDbEntity
  8
0
100
AcDbBlockEnd
  0
BLOCK
  5
BF7
330
BF6
100
AcDbEntity
  8
0
100
AcDbBlockBegin
  2
*D68
 70
     1
 10
0.0
 20
0.0
 30
0.0
  3
*D68
  1

  0
LINE
  5
BF8
330
BF6
100
AcDbEntity
  8
20_DIM
 62
     0
100
AcDbLine
 10
133.0880952380994
 20
98.76692903060757
 30
0.0
 11
133.0880952380994
 21
42.43748980022792
 31
0.0
  0
LINE
  5
BF9
330
BF6
100
AcDbEntity
  8
20_DIM
 62
     0
100
AcDbLine
 10
140.0880952380994
 20
84.9669290306083
 30
0.0
 11
140.0880952380994
 21
42.43748980022792
 31
0.0
  0
LINE
  5
BFA
330
BF6
100
AcDbEntity
  8
20_DIM
 62
     0
100
AcDbLine
 10
133.0880952380994
 20
43.43748980022792
 30
0.0
 11
110.2654285714297
 21
43.43748980022792
 31
0.0
  0
LINE
  5
BFB
330
BF6
100
AcDbEntity
  8
20_DIM
 62
     0
100
AcDbLine
 10
133.0880952380994
 20
43.43748980022792
 30
0.0
 11
140.0880952380994
 21
43.43748980022792
 31
0.0
  0
LINE
  5
BFC
330
BF6
100
AcDbEntity
  8
20_DIM
 62
     0
100
AcDbLine
 10
125.0880952380994
 20
43.43748980022792
 30
0.0
 11
117.0880952380994
 21
43.43748980022792
 31
0.0
  0
LINE
  5
BFD
330
BF6
100
AcDbEntity
  8
20_DIM
 62
     0
100
AcDbLine
 10
148.0880952380994
 20
43.43748980022792
 30
0.0
 11
156.0880952380994
 21
43.43748980022792
 31
0.0
  0
INSERT
  5
BFE
330
BF6
100
AcDbEntity
  8
20_DIM
 62
     0
100
AcDbBlockReference
  2
_OPEN
 10
133.0880952380994
 20
43.43748980022792
 30
0.0
 41
8.0
 42
8.0
 43
8.0
  0
INSERT
  5
BFF
330
BF6
100
AcDbEntity
  8
20_DIM
 62
     0
100
AcDbBlockReference
  2
_OPEN
 10
140.0880952380994
 20
43.43748980022792
 30
0.0
 41
8.0
 42
8.0
 43
8.0
 50
180.0
  0
MTEXT
  5
C00
330
BF6
100
AcDbEntity
  8
20_DIM
 62
     0
100
AcDbMText
 10
113.4214285714297
 20
48.43748980022792
 30
0.0
 40
8.0
 41
0.0
 71
     5
 72
     1
  1
7
  0
POINT
  5
C01
330
BF6
100
AcDbEntity
  8
DEFPOINTS
 62
     0
100
AcDbPoint
 10
133.0880952380994
 20
101.7669290306076
 30
0.0
  0
POINT
  5
C02
330
BF6
100
AcDbEntity
  8
DEFPOINTS
 62
     0
100
AcDbPoint
 10
140.0880952380994
 20
87.9669290306083
 30
0.0
  0
POINT
  5
CA6
330
BF6
100
AcDbEntity
  8
DEFPOINTS
 62
     0
100
AcDbPoint
 10
140.0880952380994
 20
43.43748980022792
 30
0.0
  0
ENDBLK
  5
C03
330
BF6
100
AcDbEntity
  8
0
100
AcDbBlockEnd
  0
BLOCK
  5
C92
330
C91
100
AcDbEntity
  8
0
100
AcDbBlockBegin
  2
*D69
 70
     1
 10
0.0
 20
0.0
 30
0.0
  3
*D69
  1

  0
LINE
  5
C93
330
C91
100
AcDbEntity
  8
20_DIM
 62
     0
100
AcDbLine
 10
45.23809523810087
 20
99.47241152522838
 30
0.0
 11
45.23809523810087
 21
42.44297229485892
 31
0.0
  0
LINE
  5
C94
330
C91
100
AcDbEntity
  8
20_DIM
 62
     0
100
AcDbLine
 10
57.93809548809986
 20
99.4669290306083
 30
0.0
 11
57.93809548809986
 21
42.44297229485892
 31
0.0
  0
LINE
  5
C95
330
C91
100
AcDbEntity
  8
20_DIM
 62
     0
100
AcDbLine
 10
45.23809523810087
 20
43.44297229485892
 30
0.0
 11
2.691047619049527
 21
43.44297229485892
 31
0.0
  0
LINE
  5
C96
330
C91
100
AcDbEntity
  8
20_DIM
 62
     0
100
AcDbLine
 10
45.23809523810087
 20
43.44297229485892
 30
0.0
 11
57.93809548809986
 21
43.44297229485892
 31
0.0
  0
LINE
  5
C97
330
C91
100
AcDbEntity
  8
20_DIM
 62
     0
100
AcDbLine
 10
37.23809523810087
 20
43.44297229485892
 30
0.0
 11
29.23809523810087
 21
43.44297229485892
 31
0.0
  0
LINE
  5
C98
330
C91
100
AcDbEntity
  8
20_DIM
 62
     0
100
AcDbLine
 10
65.93809548809986
 20
43.44297229485892
 30
0.0
 11
73.93809548809986
 21
43.44297229485892
 31
0.0
  0
INSERT
  5
C99
330
C91
100
AcDbEntity
  8
20_DIM
 62
     0
100
AcDbBlockReference
  2
_OPEN
 10
45.23809523810087
 20
43.44297229485892
 30
0.0
 41
8.0
 42
8.0
 43
8.0
  0
INSERT
  5
C9A
330
C91
100
AcDbEntity
  8
20_DIM
 62
     0
100
AcDbBlockReference
  2
_OPEN
 10
57.93809548809986
 20
43.44297229485892
 30
0.0
 41
8.0
 42
8.0
 43
8.0
 50
180.0
  0
MTEXT
  5
C9B
330
C91
100
AcDbEntity
  8
20_DIM
 62
     0
100
AcDbMText
 10
12.61904761904952
 20
48.46297229485892
 30
0.0
 40
8.0
 41
0.0
 71
     5
 72
     1
  1
12.7
  0
POINT
  5
C9C
330
C91
100
AcDbEntity
  8
DEFPOINTS
 62
     0
100
AcDbPoint
 10
45.23809523810087
 20
102.4724115252284
 30
0.0
  0
POINT
  5
C9D
330
C91
100
AcDbEntity
  8
DEFPOINTS
 62
     0
100
AcDbPoint
 10
57.93809548809986
 20
102.4669290306083
 30
0.0
  0
POINT
  5
CA7
330
C91
100
AcDbEntity
  8
DEFPOINTS
 62
     0
100
AcDbPoint
 10
57.93809548809986
 20
43.44297229485892
 30
0.0
  0
ENDBLK
  5
C9E
330
C91
100
AcDbEntity
  8
0
100
AcDbBlockEnd
  0
BLOCK
  5
D77
330
D76
100
AcDbEntity
  8
0
100
AcDbBlockBegin
  2
*D70
 70
     1
 10
0.0
 20
0.0
 30
0.0
  3
*D70
  1

  0
LINE
  5
D79
330
D76
100
AcDbEntity
  8
20_DIM
 62
     0
100
AcDbLine
 10
164.424702504314
 20
305.0626289336236
 30
0.0
 11
164.4247025043139
 21
247.5331897032542
 31
0.0
  0
LINE
  5
D7A
330
D76
100
AcDbEntity
  8
20_DIM
 62
     0
100
AcDbLine
 10
762.4247025043139
 20
305.0626289336236
 30
0.0
 11
762.4247025043139
 21
247.5331897032542
 31
0.0
  0
LINE
  5
D7B
330
D76
100
AcDbEntity
  8
20_DIM
 62
     0
100
AcDbLine
 10
172.4247025043139
 20
248.5331897032542
 30
0.0
 11
754.4247025043139
 21
248.5331897032542
 31
0.0
  0
INSERT
  5
D7C
330
D76
100
AcDbEntity
  8
20_DIM
 62
     0
100
AcDbBlockReference
  2
_OPEN
 10
164.4247025043139
 20
248.5331897032542
 30
0.0
 41
8.0
 42
8.0
 43
8.0
 50
180.0
  0
INSERT
  5
D7D
330
D76
100
AcDbEntity
  8
20_DIM
 62
     0
100
AcDbBlockReference
  2
_OPEN
 10
762.4247025043139
 20
248.5331897032542
 30
0.0
 41
8.0
 42
8.0
 43
8.0
  0
MTEXT
  5
D7E
330
D76
100
AcDbEntity
  8
20_DIM
 62
     0
100
AcDbMText
 10
463.424702504314
 20
253.5531897032542
 30
0.0
 40
8.0
 41
0.0
 71
     5
 72
     1
  1
1198±1.5
  0
POINT
  5
D7F
330
D76
100
AcDbEntity
  8
DEFPOINTS
 62
     0
100
AcDbPoint
 10
164.424702504314
 20
308.0626289336236
 30
0.0
  0
POINT
  5
D80
330
D76
100
AcDbEntity
  8
DEFPOINTS
 62
     0
100
AcDbPoint
 10
762.4247025043139
 20
308.0626289336236
 30
0.0
  0
POINT
  5
D81
330
D76
100
AcDbEntity
  8
DEFPOINTS
 62
     0
100
AcDbPoint
 10
762.4247025043139
 20
248.5331897032542
 30
0.0
  0
ENDBLK
  5
D78
330
D76
100
AcDbEntity
  8
0
100
AcDbBlockEnd
  0
BLOCK
  5
D83
330
D82
100
AcDbEntity
  8
0
100
AcDbBlockBegin
  2
*D71
 70
     1
 10
0.0
 20
0.0
 30
0.0
  3
*D71
  1

  0
LINE
  5
D85
330
D82
100
AcDbEntity
  8
20_DIM
 62
     0
100
AcDbLine
 10
265.0814814303838
 20
338.0626289336236
 30
0.0
 11
265.0814814303838
 21
396.4020575050541
 31
0.0
  0
LINE
  5
D86
330
D82
100
AcDbEntity
  8
20_DIM
 62
     0
100
AcDbLine
 10
265.0814814303838
 20
330.0626289336236
 30
0.0
 11
265.0814814303838
 21
315.0626289336236
 31
0.0
  0
INSERT
  5
D87
330
D82
100
AcDbEntity
  8
20_DIM
 62
     0
100
AcDbBlockReference
  2
_OPEN
 10
265.0814814303838
 20
338.0626289336236
 30
0.0
 41
8.0
 42
8.0
 43
8.0
 50
90.0
  0
INSERT
  5
D88
330
D82
100
AcDbEntity
  8
20_DIM
 62
     0
100
AcDbBlockReference
  2
_OPEN
 10
265.0814814303838
 20
307.0626289336236
 30
0.0
 41
8.0
 42
8.0
 43
8.0
 50
270.0
  0
MTEXT
  5
D89
330
D82
100
AcDbEntity
  8
20_DIM
 62
     0
100
AcDbMText
 10
258.8774814303838
 20
372.4340575050541
 30
0.0
 40
8.0
 41
0.0
 71
     5
 72
     1
  1
φ31%%p0.5
 11
0.0
 21
1.0
 31
0.0
  0
POINT
  5
D8A
330
D82
100
AcDbEntity
  8
DEFPOINTS
 62
     0
100
AcDbPoint
 10
184.424702504314
 20
338.0626289336236
 30
0.0
  0
POINT
  5
D8B
330
D82
100
AcDbEntity
  8
DEFPOINTS
 62
     0
100
AcDbPoint
 10
184.424702504314
 20
307.0626289336236
 30
0.0
  0
POINT
  5
D8C
330
D82
100
AcDbEntity
  8
DEFPOINTS
 62
     0
100
AcDbPoint
 10
265.0814814303838
 20
307.0626289336236
 30
0.0
  0
ENDBLK
  5
D84
330
D82
100
AcDbEntity
  8
0
100
AcDbBlockEnd
  0
BLOCK
  5
D8E
330
D8D
100
AcDbEntity
  8
0
100
AcDbBlockBegin
  2
*D72
 70
     1
 10
0.0
 20
0.0
 30
0.0
  3
*D72
  1

  0
LINE
  5
D90
330
D8D
100
AcDbEntity
  8
20_DIM
 62
     0
100
AcDbLine
 10
170.424702504314
 20
339.0626289336236
 30
0.0
 11
144.0362853973245
 21
339.0626289336236
 31
0.0
  0
LINE
  5
D91
330
D8D
100
AcDbEntity
  8
20_DIM
 62
     0
100
AcDbLine
 10
170.424702504314
 20
306.0626289336236
 30
0.0
 11
144.0362853973245
 21
306.0626289336236
 31
0.0
  0
LINE
  5
D92
330
D8D
100
AcDbEntity
  8
20_DIM
 62
     0
100
AcDbLine
 10
145.0362853973245
 20
339.0626289336236
 30
0.0
 11
145.0362853973245
 21
397.4020575050541
 31
0.0
  0
LINE
  5
D93
330
D8D
100
AcDbEntity
  8
20_DIM
 62
     0
100
AcDbLine
 10
145.0362853973245
 20
331.0626289336236
 30
0.0
 11
145.0362853973245
 21
314.0626289336236
 31
0.0
  0
INSERT
  5
D94
330
D8D
100
AcDbEntity
  8
20_DIM
 62
     0
100
AcDbBlockReference
  2
_OPEN
 10
145.0362853973245
 20
339.0626289336236
 30
0.0
 41
8.0
 42
8.0
 43
8.0
 50
90.0
  0
INSERT
  5
D95
330
D8D
100
AcDbEntity
  8
20_DIM
 62
     0
100
AcDbBlockReference
  2
_OPEN
 10
145.0362853973245
 20
306.0626289336236
 30
0.0
 41
8.0
 42
8.0
 43
8.0
 50
270.0
  0
MTEXT
  5
D96
330
D8D
100
AcDbEntity
  8
20_DIM
 62
     0
100
AcDbMText
 10
138.8322853973245
 20
373.4340575050541
 30
0.0
 40
8.0
 41
0.0
 71
     5
 72
     1
  1
φ33%%p0.3
 11
0.0
 21
1.0
 31
0.0
  0
POINT
  5
D97
330
D8D
100
AcDbEntity
  8
DEFPOINTS
 62
     0
100
AcDbPoint
 10
173.424702504314
 20
339.0626289336236
 30
0.0
  0
POINT
  5
D98
330
D8D
100
AcDbEntity
  8
DEFPOINTS
 62
     0
100
AcDbPoint
 10
173.424702504314
 20
306.0626289336236
 30
0.0
  0
POINT
  5
D99
330
D8D
100
AcDbEntity
  8
DEFPOINTS
 62
     0
100
AcDbPoint
 10
145.0362853973245
 20
306.0626289336236
 30
0.0
  0
ENDBLK
  5
D8F
330
D8D
100
AcDbEntity
  8
0
100
AcDbBlockEnd
  0
BLOCK
  5
D9B
330
D9A
100
AcDbEntity
  8
0
100
AcDbBlockBegin
  2
*D73
 70
     1
 10
0.0
 20
0.0
 30
0.0
  3
*D73
  1

  0
LINE
  5
D9D
330
D9A
100
AcDbEntity
  8
20_DIM
 62
     0
100
AcDbLine
 10
164.424702504314
 20
305.0626289336236
 30
0.0
 11
164.424702504314
 21
262.5331897032432
 31
0.0
  0
LINE
  5
D9E
330
D9A
100
AcDbEntity
  8
20_DIM
 62
     0
100
AcDbLine
 10
184.424702504314
 20
303.0626289336236
 30
0.0
 11
184.424702504314
 21
262.5331897032432
 31
0.0
  0
LINE
  5
D9F
330
D9A
100
AcDbEntity
  8
20_DIM
 62
     0
100
AcDbLine
 10
164.424702504314
 20
263.5331897032432
 30
0.0
 11
233.2607025043151
 21
263.5331897032432
 31
0.0
  0
LINE
  5
DA0
330
D9A
100
AcDbEntity
  8
20_DIM
 62
     0
100
AcDbLine
 10
172.424702504314
 20
263.5331897032432
 30
0.0
 11
176.424702504314
 21
263.5331897032432
 31
0.0
  0
INSERT
  5
DA1
330
D9A
100
AcDbEntity
  8
20_DIM
 62
     0
100
AcDbBlockReference
  2
_OPEN
 10
164.424702504314
 20
263.5331897032432
 30
0.0
 41
8.0
 42
8.0
 43
8.0
 50
180.0
  0
INSERT
  5
DA2
330
D9A
100
AcDbEntity
  8
20_DIM
 62
     0
100
AcDbBlockReference
  2
_OPEN
 10
184.424702504314
 20
263.5331897032432
 30
0.0
 41
8.0
 42
8.0
 43
8.0
  0
MTEXT
  5
DA3
330
D9A
100
AcDbEntity
  8
20_DIM
 62
     0
100
AcDbMText
 10
214.2247025043151
 20
268.5531897032432
 30
0.0
 40
8.0
 41
0.0
 71
     5
 72
     1
  1
20%%p0.3
  0
POINT
  5
DA4
330
D9A
100
AcDbEntity
  8
DEFPOINTS
 62
     0
100
AcDbPoint
 10
164.424702504314
 20
308.0626289336236
 30
0.0
  0
POINT
  5
DA5
330
D9A
100
AcDbEntity
  8
DEFPOINTS
 62
     0
100
AcDbPoint
 10
184.424702504314
 20
306.0626289336236
 30
0.0
  0
POINT
  5
DA6
330
D9A
100
AcDbEntity
  8
DEFPOINTS
 62
     0
100
AcDbPoint
 10
184.424702504314
 20
263.5331897032432
 30
0.0
  0
ENDBLK
  5
D9C
330
D9A
100
AcDbEntity
  8
0
100
AcDbBlockEnd
  0
BLOCK
  5
DA8
330
DA7
100
AcDbEntity
  8
0
100
AcDbBlockBegin
  2
*D74
 70
     1
 10
0.0
 20
0.0
 30
0.0
  3
*D74
  1

  0
LINE
  5
DAA
330
DA7
100
AcDbEntity
  8
20_DIM
 62
     0
100
AcDbLine
 10
157.424702504314
 20
318.8626289336229
 30
0.0
 11
157.424702504314
 21
262.5331897032432
 31
0.0
  0
LINE
  5
DAB
330
DA7
100
AcDbEntity
  8
20_DIM
 62
     0
100
AcDbLine
 10
164.424702504314
 20
305.0626289336236
 30
0.0
 11
164.424702504314
 21
262.5331897032432
 31
0.0
  0
LINE
  5
DAC
330
DA7
100
AcDbEntity
  8
20_DIM
 62
     0
100
AcDbLine
 10
157.424702504314
 20
263.5331897032432
 30
0.0
 11
134.6020358376443
 21
263.5331897032432
 31
0.0
  0
LINE
  5
DAD
330
DA7
100
AcDbEntity
  8
20_DIM
 62
     0
100
AcDbLine
 10
157.424702504314
 20
263.5331897032432
 30
0.0
 11
164.424702504314
 21
263.5331897032432
 31
0.0
  0
LINE
  5
DAE
330
DA7
100
AcDbEntity
  8
20_DIM
 62
     0
100
AcDbLine
 10
149.424702504314
 20
263.5331897032432
 30
0.0
 11
141.424702504314
 21
263.5331897032432
 31
0.0
  0
LINE
  5
DAF
330
DA7
100
AcDbEntity
  8
20_DIM
 62
     0
100
AcDbLine
 10
172.424702504314
 20
263.5331897032432
 30
0.0
 11
180.424702504314
 21
263.5331897032432
 31
0.0
  0
INSERT
  5
DB0
330
DA7
100
AcDbEntity
  8
20_DIM
 62
     0
100
AcDbBlockReference
  2
_OPEN
 10
157.424702504314
 20
263.5331897032432
 30
0.0
 41
8.0
 42
8.0
 43
8.0
  0
INSERT
  5
DB1
330
DA7
100
AcDbEntity
  8
20_DIM
 62
     0
100
AcDbBlockReference
  2
_OPEN
 10
164.424702504314
 20
263.5331897032432
 30
0.0
 41
8.0
 42
8.0
 43
8.0
 50
180.0
  0
MTEXT
  5
DB2
330
DA7
100
AcDbEntity
  8
20_DIM
 62
     0
100
AcDbMText
 10
137.7580358376443
 20
268.5331897032432
 30
0.0
 40
8.0
 41
0.0
 71
     5
 72
     1
  1
7
  0
POINT
  5
DB3
330
DA7
100
AcDbEntity
  8
DEFPOINTS
 62
     0
100
AcDbPoint
 10
157.424702504314
 20
321.8626289336229
 30
0.0
  0
POINT
  5
DB4
330
DA7
100
AcDbEntity
  8
DEFPOINTS
 62
     0
100
AcDbPoint
 10
164.424702504314
 20
308.0626289336236
 30
0.0
  0
POINT
  5
DB5
330
DA7
100
AcDbEntity
  8
DEFPOINTS
 62
     0
100
AcDbPoint
 10
164.424702504314
 20
263.5331897032432
 30
0.0
  0
ENDBLK
  5
DA9
330
DA7
100
AcDbEntity
  8
0
100
AcDbBlockEnd
  0
BLOCK
  5
DB7
330
DB6
100
AcDbEntity
  8
0
100
AcDbBlockBegin
  2
*D75
 70
     1
 10
0.0
 20
0.0
 30
0.0
  3
*D75
  1

  0
LINE
  5
DB9
330
DB6
100
AcDbEntity
  8
20_DIM
 62
     0
100
AcDbLine
 10
69.57470250431544
 20
319.5681114282437
 30
0.0
 11
69.57470250431544
 21
262.5386721978742
 31
0.0
  0
LINE
  5
DBA
330
DB6
100
AcDbEntity
  8
20_DIM
 62
     0
100
AcDbLine
 10
82.27470275431443
 20
319.5626289336236
 30
0.0
 11
82.27470275431443
 21
262.5386721978742
 31
0.0
  0
LINE
  5
DBB
330
DB6
100
AcDbEntity
  8
20_DIM
 62
     0
100
AcDbLine
 10
69.57470250431544
 20
263.5386721978742
 30
0.0
 11
27.0276548852641
 21
263.5386721978742
 31
0.0
  0
LINE
  5
DBC
330
DB6
100
AcDbEntity
  8
20_DIM
 62
     0
100
AcDbLine
 10
69.57470250431544
 20
263.5386721978742
 30
0.0
 11
82.27470275431443
 21
263.5386721978742
 31
0.0
  0
LINE
  5
DBD
330
DB6
100
AcDbEntity
  8
20_DIM
 62
     0
100
AcDbLine
 10
61.57470250431544
 20
263.5386721978742
 30
0.0
 11
53.57470250431544
 21
263.5386721978742
 31
0.0
  0
LINE
  5
DBE
330
DB6
100
AcDbEntity
  8
20_DIM
 62
     0
100
AcDbLine
 10
90.27470275431443
 20
263.5386721978742
 30
0.0
 11
98.27470275431443
 21
263.5386721978742
 31
0.0
  0
INSERT
  5
DBF
330
DB6
100
AcDbEntity
  8
20_DIM
 62
     0
100
AcDbBlockReference
  2
_OPEN
 10
69.57470250431544
 20
263.5386721978742
 30
0.0
 41
8.0
 42
8.0
 43
8.0
  0
INSERT
  5
DC0
330
DB6
100
AcDbEntity
  8
20_DIM
 62
     0
100
AcDbBlockReference
  2
_OPEN
 10
82.27470275431443
 20
263.5386721978742
 30
0.0
 41
8.0
 42
8.0
 43
8.0
 50
180.0
  0
MTEXT
  5
DC1
330
DB6
100
AcDbEntity
  8
20_DIM
 62
     0
100
AcDbMText
 10
36.9556548852641
 20
268.5586721978742
 30
0.0
 40
8.0
 41
0.0
 71
     5
 72
     1
  1
12.7
  0
POINT
  5
DC2
330
DB6
100
AcDbEntity
  8
DEFPOINTS
 62
     0
100
AcDbPoint
 10
69.57470250431544
 20
322.5681114282437
 30
0.0
  0
POINT
  5
DC3
330
DB6
100
AcDbEntity
  8
DEFPOINTS
 62
     0
100
AcDbPoint
 10
82.27470275431443
 20
322.5626289336236
 30
0.0
  0
POINT
  5
DC4
330
DB6
100
AcDbEntity
  8
DEFPOINTS
 62
     0
100
AcDbPoint
 10
82.27470275431443
 20
263.5386721978742
 30
0.0
  0
ENDBLK
  5
DB8
330
DB6
100
AcDbEntity
  8
0
100
AcDbBlockEnd
  0
BLOCK
  5
E80
330
E7F
100
AcDbEntity
  8
0
100
AcDbBlockBegin
  2
*D76
 70
     1
 10
0.0
 20
0.0
 30
0.0
  3
*D76
  1

  0
LINE
  5
E81
330
E7F
100
AcDbEntity
  8
20_DIM
 62
     0
100
AcDbLine
 10
36.91289523437081
 20
102.4394029720279
 30
0.0
 11
36.91289523437081
 21
53.28917056651699
 31
0.0
  0
LINE
  5
E82
330
E7F
100
AcDbEntity
  8
20_DIM
 62
     0
100
AcDbLine
 10
43.91289523437081
 20
102.4394029720279
 30
0.0
 11
43.91289523437081
 21
53.28917056651699
 31
0.0
  0
LINE
  5
E83
330
E7F
100
AcDbEntity
  8
20_DIM
 62
     0
100
AcDbLine
 10
36.91289523437081
 20
54.28917056651699
 30
0.0
 11
43.91289523437081
 21
54.28917056651699
 31
0.0
  0
LINE
  5
E84
330
E7F
100
AcDbEntity
  8
20_DIM
 62
     0
100
AcDbLine
 10
28.91289523437081
 20
54.28917056651699
 30
0.0
 11
20.91289523437081
 21
54.28917056651699
 31
0.0
  0
LINE
  5
E85
330
E7F
100
AcDbEntity
  8
20_DIM
 62
     0
100
AcDbLine
 10
51.91289523437081
 20
54.28917056651699
 30
0.0
 11
59.91289523437081
 21
54.28917056651699
 31
0.0
  0
INSERT
  5
E86
330
E7F
100
AcDbEntity
  8
20_DIM
 62
     0
100
AcDbBlockReference
  2
_OPEN
 10
36.91289523437081
 20
54.28917056651699
 30
0.0
 41
8.0
 42
8.0
 43
8.0
  0
INSERT
  5
E87
330
E7F
100
AcDbEntity
  8
20_DIM
 62
     0
100
AcDbBlockReference
  2
_OPEN
 10
43.91289523437081
 20
54.28917056651699
 30
0.0
 41
8.0
 42
8.0
 43
8.0
 50
180.0
  0
MTEXT
  5
E88
330
E7F
100
AcDbEntity
  8
20_DIM
 62
     0
100
AcDbMText
 10
40.41289523437081
 20
59.28917056651699
 30
0.0
 40
8.0
 41
0.0
 71
     5
 72
     1
  1
7
  0
POINT
  5
E89
330
E7F
100
AcDbEntity
  8
DEFPOINTS
 62
     0
100
AcDbPoint
 10
36.91289523437081
 20
103.4394029720279
 30
0.0
  0
POINT
  5
E8A
330
E7F
100
AcDbEntity
  8
DEFPOINTS
 62
     0
100
AcDbPoint
 10
43.91289523437081
 20
103.4394029720279
 30
0.0
  0
POINT
  5
E8B
330
E7F
100
AcDbEntity
  8
DEFPOINTS
 62
     0
100
AcDbPoint
 10
43.91289523437081
 20
54.28917056651699
 30
0.0
  0
ENDBLK
  5
E8C
330
E7F
100
AcDbEntity
  8
0
100
AcDbBlockEnd
  0
BLOCK
  5
EA3
330
EA2
100
AcDbEntity
  8
0
100
AcDbBlockBegin
  2
*D77
 70
     1
 10
0.0
 20
0.0
 30
0.0
  3
*D77
  1

  0
LINE
  5
EA4
330
EA2
100
AcDbEntity
  8
20_DIM
 62
     0
100
AcDbLine
 10
127.9589398490607
 20
87.68940297202789
 30
0.0
 11
127.9589398490607
 21
31.2099637416577
 31
0.0
  0
LINE
  5
EA5
330
EA2
100
AcDbEntity
  8
20_DIM
 62
     0
100
AcDbLine
 10
727.9589398490607
 20
87.68940297202789
 30
0.0
 11
727.9589398490607
 21
31.2099637416577
 31
0.0
  0
LINE
  5
EA6
330
EA2
100
AcDbEntity
  8
20_DIM
 62
     0
100
AcDbLine
 10
135.9589398490607
 20
32.2099637416577
 30
0.0
 11
719.9589398490607
 21
32.2099637416577
 31
0.0
  0
INSERT
  5
EA7
330
EA2
100
AcDbEntity
  8
20_DIM
 62
     0
100
AcDbBlockReference
  2
_OPEN
 10
127.9589398490607
 20
32.2099637416577
 30
0.0
 41
8.0
 42
8.0
 43
8.0
 50
180.0
  0
INSERT
  5
EA8
330
EA2
100
AcDbEntity
  8
20_DIM
 62
     0
100
AcDbBlockReference
  2
_OPEN
 10
727.9589398490607
 20
32.2099637416577
 30
0.0
 41
8.0
 42
8.0
 43
8.0
  0
MTEXT
  5
EA9
330
EA2
100
AcDbEntity
  8
20_DIM
 62
     0
100
AcDbMText
 10
427.9589398490607
 20
37.22996374165771
 30
0.0
 40
8.0
 41
0.0
 71
     5
 72
     1
  1
2367±1.5
  0
POINT
  5
EAA
330
EA2
100
AcDbEntity
  8
DEFPOINTS
 62
     0
100
AcDbPoint
 10
127.9589398490607
 20
90.68940297202789
 30
0.0
  0
POINT
  5
EAB
330
EA2
100
AcDbEntity
  8
DEFPOINTS
 62
     0
100
AcDbPoint
 10
727.9589398490607
 20
90.68940297202789
 30
0.0
  0
POINT
  5
EAC
330
EA2
100
AcDbEntity
  8
DEFPOINTS
 62
     0
100
AcDbPoint
 10
727.9589398490607
 20
32.2099637416577
 30
0.0
  0
ENDBLK
  5
EAD
330
EA2
100
AcDbEntity
  8
0
100
AcDbBlockEnd
  0
BLOCK
  5
EB0
330
EAF
100
AcDbEntity
  8
0
100
AcDbBlockBegin
  2
*D78
 70
     1
 10
0.0
 20
0.0
 30
0.0
  3
*D78
  1

  0
LINE
  5
EB1
330
EAF
100
AcDbEntity
  8
20_DIM
 62
     0
100
AcDbLine
 10
518.4038071940104
 20
121.7394029720271
 30
0.0
 11
518.4038071940104
 21
180.0788315434576
 31
0.0
  0
LINE
  5
EB2
330
EAF
100
AcDbEntity
  8
20_DIM
 62
     0
100
AcDbLine
 10
518.4038071940104
 20
113.7394029720271
 30
0.0
 11
518.4038071940104
 21
98.73940297202714
 31
0.0
  0
INSERT
  5
EB3
330
EAF
100
AcDbEntity
  8
20_DIM
 62
     0
100
AcDbBlockReference
  2
_OPEN
 10
518.4038071940104
 20
121.7394029720271
 30
0.0
 41
8.0
 42
8.0
 43
8.0
 50
90.0
  0
INSERT
  5
EB4
330
EAF
100
AcDbEntity
  8
20_DIM
 62
     0
100
AcDbBlockReference
  2
_OPEN
 10
518.4038071940104
 20
90.73940297202714
 30
0.0
 41
8.0
 42
8.0
 43
8.0
 50
270.0
  0
MTEXT
  5
EB5
330
EAF
100
AcDbEntity
  8
20_DIM
 62
     0
100
AcDbMText
 10
512.1998071940104
 20
156.1108315434576
 30
0.0
 40
8.0
 41
0.0
 71
     5
 72
     1
  1
φ31%%p0.5
 11
0.0
 21
1.0
 31
0.0
  0
POINT
  5
EB6
330
EAF
100
AcDbEntity
  8
DEFPOINTS
 62
     0
100
AcDbPoint
 10
148.9589398490607
 20
121.7394029720272
 30
0.0
  0
POINT
  5
EB7
330
EAF
100
AcDbEntity
  8
DEFPOINTS
 62
     0
100
AcDbPoint
 10
148.9589398490607
 20
90.73940297202716
 30
0.0
  0
POINT
  5
EB8
330
EAF
100
AcDbEntity
  8
DEFPOINTS
 62
     0
100
AcDbPoint
 10
518.4038071940013
 20
90.73940297202714
 30
0.0
  0
ENDBLK
  5
EB9
330
EAF
100
AcDbEntity
  8
0
100
AcDbBlockEnd
  0
BLOCK
  5
EBC
330
EBB
100
AcDbEntity
  8
0
100
AcDbBlockBegin
  2
*D79
 70
     1
 10
0.0
 20
0.0
 30
0.0
  3
*D79
  1

  0
LINE
  5
EBD
330
EBB
100
AcDbEntity
  8
20_DIM
 62
     0
100
AcDbLine
 10
132.9589398490607
 20
122.7394029720272
 30
0.0
 11
108.5705227420713
 21
122.7394029720272
 31
0.0
  0
LINE
  5
EBE
330
EBB
100
AcDbEntity
  8
20_DIM
 62
     0
100
AcDbLine
 10
132.9589398490607
 20
89.63940297202862
 30
0.0
 11
108.5705227420713
 21
89.63940297202862
 31
0.0
  0
LINE
  5
EBF
330
EBB
100
AcDbEntity
  8
20_DIM
 62
     0
100
AcDbLine
 10
109.5705227420713
 20
122.7394029720272
 30
0.0
 11
109.5705227420713
 21
190.8811172577475
 31
0.0
  0
LINE
  5
EC0
330
EBB
100
AcDbEntity
  8
20_DIM
 62
     0
100
AcDbLine
 10
109.5705227420713
 20
114.7394029720272
 30
0.0
 11
109.5705227420713
 21
97.63940297202862
 31
0.0
  0
INSERT
  5
EC1
330
EBB
100
AcDbEntity
  8
20_DIM
 62
     0
100
AcDbBlockReference
  2
_OPEN
 10
109.5705227420713
 20
122.7394029720272
 30
0.0
 41
8.0
 42
8.0
 43
8.0
 50
90.0
  0
INSERT
  5
EC2
330
EBB
100
AcDbEntity
  8
20_DIM
 62
     0
100
AcDbBlockReference
  2
_OPEN
 10
109.5705227420713
 20
89.63940297202862
 30
0.0
 41
8.0
 42
8.0
 43
8.0
 50
270.0
  0
MTEXT
  5
EC3
330
EBB
100
AcDbEntity
  8
20_DIM
 62
     0
100
AcDbMText
 10
103.3665227420713
 20
162.8251172577475
 30
0.0
 40
8.0
 41
0.0
 71
     5
 72
     1
  1
φ33.1%%p0.3
 11
0.0
 21
1.0
 31
0.0
  0
POINT
  5
EC4
330
EBB
100
AcDbEntity
  8
DEFPOINTS
 62
     0
100
AcDbPoint
 10
135.9589398490607
 20
122.7394029720272
 30
0.0
  0
POINT
  5
EC5
330
EBB
100
AcDbEntity
  8
DEFPOINTS
 62
     0
100
AcDbPoint
 10
135.9589398490607
 20
89.63940297202862
 30
0.0
  0
POINT
  5
EC6
330
EBB
100
AcDbEntity
  8
DEFPOINTS
 62
     0
100
AcDbPoint
 10
109.5705227420713
 20
89.63940297202862
 30
0.0
  0
ENDBLK
  5
EC7
330
EBB
100
AcDbEntity
  8
0
100
AcDbBlockEnd
  0
BLOCK
  5
ECA
330
EC9
100
AcDbEntity
  8
0
100
AcDbBlockBegin
  2
*D80
 70
     1
 10
0.0
 20
0.0
 30
0.0
  3
*D80
  1

  0
LINE
  5
ECB
330
EC9
100
AcDbEntity
  8
20_DIM
 62
     0
100
AcDbLine
 10
127.9589398490607
 20
87.68940297202789
 30
0.0
 11
127.9589398490607
 21
46.2099637416577
 31
0.0
  0
LINE
  5
ECC
330
EC9
100
AcDbEntity
  8
20_DIM
 62
     0
100
AcDbLine
 10
148.9589398490607
 20
86.63940297202862
 30
0.0
 11
148.9589398490607
 21
46.2099637416577
 31
0.0
  0
LINE
  5
ECD
330
EC9
100
AcDbEntity
  8
20_DIM
 62
     0
100
AcDbLine
 10
127.9589398490607
 20
47.2099637416577
 30
0.0
 11
197.79493984906
 21
47.2099637416577
 31
0.0
  0
LINE
  5
ECE
330
EC9
100
AcDbEntity
  8
20_DIM
 62
     0
100
AcDbLine
 10
135.9589398490607
 20
47.2099637416577
 30
0.0
 11
140.9589398490607
 21
47.2099637416577
 31
0.0
  0
INSERT
  5
ECF
330
EC9
100
AcDbEntity
  8
20_DIM
 62
     0
100
AcDbBlockReference
  2
_OPEN
 10
127.9589398490607
 20
47.2099637416577
 30
0.0
 41
8.0
 42
8.0
 43
8.0
 50
180.0
  0
INSERT
  5
ED0
330
EC9
100
AcDbEntity
  8
20_DIM
 62
     0
100
AcDbBlockReference
  2
_OPEN
 10
148.9589398490607
 20
47.2099637416577
 30
0.0
 41
8.0
 42
8.0
 43
8.0
  0
MTEXT
  5
ED1
330
EC9
100
AcDbEntity
  8
20_DIM
 62
     0
100
AcDbMText
 10
178.75893984906
 20
52.22996374165771
 30
0.0
 40
8.0
 41
0.0
 71
     5
 72
     1
  1
21%%p0.3
  0
POINT
  5
ED2
330
EC9
100
AcDbEntity
  8
DEFPOINTS
 62
     0
100
AcDbPoint
 10
127.9589398490607
 20
90.68940297202789
 30
0.0
  0
POINT
  5
ED3
330
EC9
100
AcDbEntity
  8
DEFPOINTS
 62
     0
100
AcDbPoint
 10
148.9589398490607
 20
89.63940297202862
 30
0.0
  0
POINT
  5
ED4
330
EC9
100
AcDbEntity
  8
DEFPOINTS
 62
     0
100
AcDbPoint
 10
148.9589398490607
 20
47.2099637416577
 30
0.0
  0
ENDBLK
  5
ED5
330
EC9
100
AcDbEntity
  8
0
100
AcDbBlockEnd
  0
BLOCK
  5
ED8
330
ED7
100
AcDbEntity
  8
0
100
AcDbBlockBegin
  2
*D81
 70
     1
 10
0.0
 20
0.0
 30
0.0
  3
*D81
  1

  0
LINE
  5
ED9
330
ED7
100
AcDbEntity
  8
20_DIM
 62
     0
100
AcDbLine
 10
119.9589398490607
 20
98.88940297202862
 30
0.0
 11
119.9589398490607
 21
46.2099637416577
 31
0.0
  0
LINE
  5
EDA
330
ED7
100
AcDbEntity
  8
20_DIM
 62
     0
100
AcDbLine
 10
127.9589398490607
 20
87.68940297202789
 30
0.0
 11
127.9589398490607
 21
46.2099637416577
 31
0.0
  0
LINE
  5
EDB
330
ED7
100
AcDbEntity
  8
20_DIM
 62
     0
100
AcDbLine
 10
119.9589398490607
 20
47.2099637416577
 30
0.0
 11
96.928273182391
 21
47.2099637416577
 31
0.0
  0
LINE
  5
EDC
330
ED7
100
AcDbEntity
  8
20_DIM
 62
     0
100
AcDbLine
 10
119.9589398490607
 20
47.2099637416577
 30
0.0
 11
127.9589398490607
 21
47.2099637416577
 31
0.0
  0
LINE
  5
EDD
330
ED7
100
AcDbEntity
  8
20_DIM
 62
     0
100
AcDbLine
 10
111.9589398490607
 20
47.2099637416577
 30
0.0
 11
103.9589398490607
 21
47.2099637416577
 31
0.0
  0
LINE
  5
EDE
330
ED7
100
AcDbEntity
  8
20_DIM
 62
     0
100
AcDbLine
 10
135.9589398490607
 20
47.2099637416577
 30
0.0
 11
143.9589398490607
 21
47.2099637416577
 31
0.0
  0
INSERT
  5
EDF
330
ED7
100
AcDbEntity
  8
20_DIM
 62
     0
100
AcDbBlockReference
  2
_OPEN
 10
119.9589398490607
 20
47.2099637416577
 30
0.0
 41
8.0
 42
8.0
 43
8.0
  0
INSERT
  5
EE0
330
ED7
100
AcDbEntity
  8
20_DIM
 62
     0
100
AcDbBlockReference
  2
_OPEN
 10
127.9589398490607
 20
47.2099637416577
 30
0.0
 41
8.0
 42
8.0
 43
8.0
 50
180.0
  0
MTEXT
  5
EE1
330
ED7
100
AcDbEntity
  8
20_DIM
 62
     0
100
AcDbMText
 10
100.292273182391
 20
52.2099637416577
 30
0.0
 40
8.0
 41
0.0
 71
     5
 72
     1
  1
8
  0
POINT
  5
EE2
330
ED7
100
AcDbEntity
  8
DEFPOINTS
 62
     0
100
AcDbPoint
 10
119.9589398490607
 20
101.8894029720286
 30
0.0
  0
POINT
  5
EE3
330
ED7
100
AcDbEntity
  8
DEFPOINTS
 62
     0
100
AcDbPoint
 10
127.9589398490607
 20
90.68940297202789
 30
0.0
  0
POINT
  5
F97
330
ED7
100
AcDbEntity
  8
DEFPOINTS
 62
     0
100
AcDbPoint
 10
127.9589398490607
 20
47.2099637416577
 30
0.0
  0
ENDBLK
  5
EE4
330
ED7
100
AcDbEntity
  8
0
100
AcDbBlockEnd
  0
BLOCK
  5
F3A
330
F39
100
AcDbEntity
  8
0
100
AcDbBlockBegin
  2
*D82
 70
     1
 10
0.0
 20
0.0
 30
0.0
  3
*D82
  1

  0
LINE
  5
F3B
330
F39
100
AcDbEntity
  8
20_DIM
 62
     0
100
AcDbLine
 10
35.91289523437081
 20
108.9394029720279
 30
0.0
 11
8.0
 21
108.9394029720279
 31
0.0
  0
LINE
  5
F3C
330
F39
100
AcDbEntity
  8
20_DIM
 62
     0
100
AcDbLine
 10
35.91289523437081
 20
103.4394029720279
 30
0.0
 11
8.0
 21
103.4394029720279
 31
0.0
  0
LINE
  5
F3D
330
F39
100
AcDbEntity
  8
20_DIM
 62
     0
100
AcDbLine
 10
9.0
 20
108.9394029720279
 30
0.0
 11
9.0
 21
72.6314029720279
 31
0.0
  0
LINE
  5
F3E
330
F39
100
AcDbEntity
  8
20_DIM
 62
     0
100
AcDbLine
 10
9.0
 20
108.9394029720279
 30
0.0
 11
9.0
 21
103.4394029720279
 31
0.0
  0
LINE
  5
F3F
330
F39
100
AcDbEntity
  8
20_DIM
 62
     0
100
AcDbLine
 10
9.0
 20
116.9394029720279
 30
0.0
 11
9.0
 21
124.9394029720279
 31
0.0
  0
INSERT
  5
F40
330
F39
100
AcDbEntity
  8
20_DIM
 62
     0
100
AcDbBlockReference
  2
_OPEN
 10
9.0
 20
108.9394029720279
 30
0.0
 41
8.0
 42
8.0
 43
8.0
 50
270.0
  0
INSERT
  5
F41
330
F39
100
AcDbEntity
  8
20_DIM
 62
     0
100
AcDbBlockReference
  2
_OPEN
 10
9.0
 20
103.4394029720279
 30
0.0
 41
8.0
 42
8.0
 43
8.0
 50
90.0
  0
MTEXT
  5
F42
330
F39
100
AcDbEntity
  8
20_DIM
 62
     0
100
AcDbMText
 10
4.0
 20
80.0354029720279
 30
0.0
 40
8.0
 41
0.0
 71
     5
 72
     1
  1
5.5
 11
0.0
 21
1.0
 31
0.0
  0
POINT
  5
F43
330
F39
100
AcDbEntity
  8
DEFPOINTS
 62
     0
100
AcDbPoint
 10
36.91289523437081
 20
108.9394029720279
 30
0.0
  0
POINT
  5
F44
330
F39
100
AcDbEntity
  8
DEFPOINTS
 62
     0
100
AcDbPoint
 10
36.91289523437081
 20
103.4394029720279
 30
0.0
  0
POINT
  5
F45
330
F39
100
AcDbEntity
  8
DEFPOINTS
 62
     0
100
AcDbPoint
 10
9.0
 20
103.4394029720279
 30
0.0
  0
ENDBLK
  5
F46
330
F39
100
AcDbEntity
  8
0
100
AcDbBlockEnd
  0
BLOCK
  5
1098
330
1097
100
AcDbEntity
  8
0
100
AcDbBlockBegin
  2
*D83
 70
     1
 10
0.0
 20
0.0
 30
0.0
  3
*D83
  1

  0
LINE
  5
109A
330
1097
100
AcDbEntity
  8
20_DIM
 62
     0
100
AcDbLine
 10
62.11689628480087
 20
299.3257572781282
 30
0.0
 11
62.11689628480087
 21
250.1755248726173
 31
0.0
  0
LINE
  5
109B
330
1097
100
AcDbEntity
  8
20_DIM
 62
     0
100
AcDbLine
 10
69.11689628480087
 20
299.3257572781282
 30
0.0
 11
69.11689628480087
 21
250.1755248726173
 31
0.0
  0
LINE
  5
109C
330
1097
100
AcDbEntity
  8
20_DIM
 62
     0
100
AcDbLine
 10
62.11689628480087
 20
251.1755248726173
 30
0.0
 11
69.11689628480087
 21
251.1755248726173
 31
0.0
  0
LINE
  5
109D
330
1097
100
AcDbEntity
  8
20_DIM
 62
     0
100
AcDbLine
 10
54.11689628480087
 20
251.1755248726173
 30
0.0
 11
46.11689628480087
 21
251.1755248726173
 31
0.0
  0
LINE
  5
109E
330
1097
100
AcDbEntity
  8
20_DIM
 62
     0
100
AcDbLine
 10
77.11689628480087
 20
251.1755248726173
 30
0.0
 11
85.11689628480087
 21
251.1755248726173
 31
0.0
  0
INSERT
  5
109F
330
1097
100
AcDbEntity
  8
20_DIM
 62
     0
100
AcDbBlockReference
  2
_OPEN
 10
62.11689628480087
 20
251.1755248726173
 30
0.0
 41
8.0
 42
8.0
 43
8.0
  0
INSERT
  5
10A0
330
1097
100
AcDbEntity
  8
20_DIM
 62
     0
100
AcDbBlockReference
  2
_OPEN
 10
69.11689628480087
 20
251.1755248726173
 30
0.0
 41
8.0
 42
8.0
 43
8.0
 50
180.0
  0
MTEXT
  5
10A1
330
1097
100
AcDbEntity
  8
20_DIM
 62
     0
100
AcDbMText
 10
65.61689628480087
 20
256.1755248726173
 30
0.0
 40
8.0
 41
0.0
 71
     5
 72
     1
  1
7
  0
POINT
  5
10A2
330
1097
100
AcDbEntity
  8
DEFPOINTS
 62
     0
100
AcDbPoint
 10
62.11689628480087
 20
300.3257572781282
 30
0.0
  0
POINT
  5
10A3
330
1097
100
AcDbEntity
  8
DEFPOINTS
 62
     0
100
AcDbPoint
 10
69.11689628480087
 20
300.3257572781282
 30
0.0
  0
POINT
  5
10A4
330
1097
100
AcDbEntity
  8
DEFPOINTS
 62
     0
100
AcDbPoint
 10
69.11689628480087
 20
251.1755248726173
 30
0.0
  0
ENDBLK
  5
1099
330
1097
100
AcDbEntity
  8
0
100
AcDbBlockEnd
  0
BLOCK
  5
10A6
330
10A5
100
AcDbEntity
  8
0
100
AcDbBlockBegin
  2
*D84
 70
     1
 10
0.0
 20
0.0
 30
0.0
  3
*D84
  1

  0
LINE
  5
10A8
330
10A5
100
AcDbEntity
  8
20_DIM
 62
     0
100
AcDbLine
 10
153.1629408994908
 20
284.5757572781282
 30
0.0
 11
153.1629408994908
 21
228.096318047758
 31
0.0
  0
LINE
  5
10A9
330
10A5
100
AcDbEntity
  8
20_DIM
 62
     0
100
AcDbLine
 10
753.1629408994908
 20
284.5757572781282
 30
0.0
 11
753.1629408994908
 21
228.096318047758
 31
0.0
  0
LINE
  5
10AA
330
10A5
100
AcDbEntity
  8
20_DIM
 62
     0
100
AcDbLine
 10
161.1629408994908
 20
229.096318047758
 30
0.0
 11
745.1629408994908
 21
229.096318047758
 31
0.0
  0
INSERT
  5
10AB
330
10A5
100
AcDbEntity
  8
20_DIM
 62
     0
100
AcDbBlockReference
  2
_OPEN
 10
153.1629408994908
 20
229.096318047758
 30
0.0
 41
8.0
 42
8.0
 43
8.0
 50
180.0
  0
INSERT
  5
10AC
330
10A5
100
AcDbEntity
  8
20_DIM
 62
     0
100
AcDbBlockReference
  2
_OPEN
 10
753.1629408994908
 20
229.096318047758
 30
0.0
 41
8.0
 42
8.0
 43
8.0
  0
MTEXT
  5
10AD
330
10A5
100
AcDbEntity
  8
20_DIM
 62
     0
100
AcDbMText
 10
453.1629408994908
 20
234.116318047758
 30
0.0
 40
8.0
 41
0.0
 71
     5
 72
     1
  1
2367±1.5
  0
POINT
  5
10AE
330
10A5
100
AcDbEntity
  8
DEFPOINTS
 62
     0
100
AcDbPoint
 10
153.1629408994908
 20
287.5757572781282
 30
0.0
  0
POINT
  5
10AF
330
10A5
100
AcDbEntity
  8
DEFPOINTS
 62
     0
100
AcDbPoint
 10
753.1629408994908
 20
287.5757572781282
 30
0.0
  0
POINT
  5
10B0
330
10A5
100
AcDbEntity
  8
DEFPOINTS
 62
     0
100
AcDbPoint
 10
753.1629408994908
 20
229.096318047758
 30
0.0
  0
ENDBLK
  5
10A7
330
10A5
100
AcDbEntity
  8
0
100
AcDbBlockEnd
  0
BLOCK
  5
10B2
330
10B1
100
AcDbEntity
  8
0
100
AcDbBlockBegin
  2
*D85
 70
     1
 10
0.0
 20
0.0
 30
0.0
  3
*D85
  1

  0
LINE
  5
10B4
330
10B1
100
AcDbEntity
  8
20_DIM
 62
     0
100
AcDbLine
 10
543.6078082444404
 20
318.6257572781275
 30
0.0
 11
543.6078082444404
 21
376.9651858495579
 31
0.0
  0
LINE
  5
10B5
330
10B1
100
AcDbEntity
  8
20_DIM
 62
     0
100
AcDbLine
 10
543.6078082444404
 20
310.6257572781275
 30
0.0
 11
543.6078082444404
 21
295.6257572781275
 31
0.0
  0
INSERT
  5
10B6
330
10B1
100
AcDbEntity
  8
20_DIM
 62
     0
100
AcDbBlockReference
  2
_OPEN
 10
543.6078082444404
 20
318.6257572781275
 30
0.0
 41
8.0
 42
8.0
 43
8.0
 50
90.0
  0
INSERT
  5
10B7
330
10B1
100
AcDbEntity
  8
20_DIM
 62
     0
100
AcDbBlockReference
  2
_OPEN
 10
543.6078082444404
 20
287.6257572781275
 30
0.0
 41
8.0
 42
8.0
 43
8.0
 50
270.0
  0
MTEXT
  5
10B8
330
10B1
100
AcDbEntity
  8
20_DIM
 62
     0
100
AcDbMText
 10
537.4038082444404
 20
352.9971858495579
 30
0.0
 40
8.0
 41
0.0
 71
     5
 72
     1
  1
φ31%%p0.5
 11
0.0
 21
1.0
 31
0.0
  0
POINT
  5
10B9
330
10B1
100
AcDbEntity
  8
DEFPOINTS
 62
     0
100
AcDbPoint
 10
174.1629408994908
 20
318.6257572781275
 30
0.0
  0
POINT
  5
10BA
330
10B1
100
AcDbEntity
  8
DEFPOINTS
 62
     0
100
AcDbPoint
 10
174.1629408994908
 20
287.6257572781275
 30
0.0
  0
POINT
  5
10BB
330
10B1
100
AcDbEntity
  8
DEFPOINTS
 62
     0
100
AcDbPoint
 10
543.6078082444404
 20
287.6257572781275
 30
0.0
  0
ENDBLK
  5
10B3
330
10B1
100
AcDbEntity
  8
0
100
AcDbBlockEnd
  0
BLOCK
  5
10BD
330
10BC
100
AcDbEntity
  8
0
100
AcDbBlockBegin
  2
*D86
 70
     1
 10
0.0
 20
0.0
 30
0.0
  3
*D86
  1

  0
LINE
  5
10BF
330
10BC
100
AcDbEntity
  8
20_DIM
 62
     0
100
AcDbLine
 10
158.1629408994908
 20
319.6257572781275
 30
0.0
 11
133.7745237925013
 21
319.6257572781275
 31
0.0
  0
LINE
  5
10C0
330
10BC
100
AcDbEntity
  8
20_DIM
 62
     0
100
AcDbLine
 10
158.1629408994908
 20
286.5257572781289
 30
0.0
 11
133.7745237925013
 21
286.5257572781289
 31
0.0
  0
LINE
  5
10C1
330
10BC
100
AcDbEntity
  8
20_DIM
 62
     0
100
AcDbLine
 10
134.7745237925013
 20
319.6257572781275
 30
0.0
 11
134.7745237925013
 21
387.7674715638478
 31
0.0
  0
LINE
  5
10C2
330
10BC
100
AcDbEntity
  8
20_DIM
 62
     0
100
AcDbLine
 10
134.7745237925013
 20
311.6257572781275
 30
0.0
 11
134.7745237925013
 21
294.5257572781289
 31
0.0
  0
INSERT
  5
10C3
330
10BC
100
AcDbEntity
  8
20_DIM
 62
     0
100
AcDbBlockReference
  2
_OPEN
 10
134.7745237925013
 20
319.6257572781275
 30
0.0
 41
8.0
 42
8.0
 43
8.0
 50
90.0
  0
INSERT
  5
10C4
330
10BC
100
AcDbEntity
  8
20_DIM
 62
     0
100
AcDbBlockReference
  2
_OPEN
 10
134.7745237925013
 20
286.5257572781289
 30
0.0
 41
8.0
 42
8.0
 43
8.0
 50
270.0
  0
MTEXT
  5
10C5
330
10BC
100
AcDbEntity
  8
20_DIM
 62
     0
100
AcDbMText
 10
128.5705237925013
 20
359.7114715638478
 30
0.0
 40
8.0
 41
0.0
 71
     5
 72
     1
  1
φ33.1%%p0.3
 11
0.0
 21
1.0
 31
0.0
  0
POINT
  5
10C6
330
10BC
100
AcDbEntity
  8
DEFPOINTS
 62
     0
100
AcDbPoint
 10
161.1629408994908
 20
319.6257572781275
 30
0.0
  0
POINT
  5
10C7
330
10BC
100
AcDbEntity
  8
DEFPOINTS
 62
     0
100
AcDbPoint
 10
161.1629408994908
 20
286.5257572781289
 30
0.0
  0
POINT
  5
10C8
330
10BC
100
AcDbEntity
  8
DEFPOINTS
 62
     0
100
AcDbPoint
 10
134.7745237925013
 20
286.5257572781289
 30
0.0
  0
ENDBLK
  5
10BE
330
10BC
100
AcDbEntity
  8
0
100
AcDbBlockEnd
  0
BLOCK
  5
10CA
330
10C9
100
AcDbEntity
  8
0
100
AcDbBlockBegin
  2
*D87
 70
     1
 10
0.0
 20
0.0
 30
0.0
  3
*D87
  1

  0
LINE
  5
10CC
330
10C9
100
AcDbEntity
  8
20_DIM
 62
     0
100
AcDbLine
 10
153.1629408994908
 20
284.5757572781282
 30
0.0
 11
153.1629408994908
 21
243.096318047758
 31
0.0
  0
LINE
  5
10CD
330
10C9
100
AcDbEntity
  8
20_DIM
 62
     0
100
AcDbLine
 10
174.1629408994908
 20
283.5257572781289
 30
0.0
 11
174.1629408994908
 21
243.096318047758
 31
0.0
  0
LINE
  5
10CE
330
10C9
100
AcDbEntity
  8
20_DIM
 62
     0
100
AcDbLine
 10
153.1629408994908
 20
244.096318047758
 30
0.0
 11
222.99894089949
 21
244.096318047758
 31
0.0
  0
LINE
  5
10CF
330
10C9
100
AcDbEntity
  8
20_DIM
 62
     0
100
AcDbLine
 10
161.1629408994908
 20
244.096318047758
 30
0.0
 11
166.1629408994908
 21
244.096318047758
 31
0.0
  0
INSERT
  5
10D0
330
10C9
100
AcDbEntity
  8
20_DIM
 62
     0
100
AcDbBlockReference
  2
_OPEN
 10
153.1629408994908
 20
244.096318047758
 30
0.0
 41
8.0
 42
8.0
 43
8.0
 50
180.0
  0
INSERT
  5
10D1
330
10C9
100
AcDbEntity
  8
20_DIM
 62
     0
100
AcDbBlockReference
  2
_OPEN
 10
174.1629408994908
 20
244.096318047758
 30
0.0
 41
8.0
 42
8.0
 43
8.0
  0
MTEXT
  5
10D2
330
10C9
100
AcDbEntity
  8
20_DIM
 62
     0
100
AcDbMText
 10
203.96294089949
 20
249.116318047758
 30
0.0
 40
8.0
 41
0.0
 71
     5
 72
     1
  1
21%%p0.3
  0
POINT
  5
10D3
330
10C9
100
AcDbEntity
  8
DEFPOINTS
 62
     0
100
AcDbPoint
 10
153.1629408994908
 20
287.5757572781282
 30
0.0
  0
POINT
  5
10D4
330
10C9
100
AcDbEntity
  8
DEFPOINTS
 62
     0
100
AcDbPoint
 10
174.1629408994908
 20
286.5257572781289
 30
0.0
  0
POINT
  5
10D5
330
10C9
100
AcDbEntity
  8
DEFPOINTS
 62
     0
100
AcDbPoint
 10
174.1629408994908
 20
244.096318047758
 30
0.0
  0
ENDBLK
  5
10CB
330
10C9
100
AcDbEntity
  8
0
100
AcDbBlockEnd
  0
BLOCK
  5
10D7
330
10D6
100
AcDbEntity
  8
0
100
AcDbBlockBegin
  2
*D88
 70
     1
 10
0.0
 20
0.0
 30
0.0
  3
*D88
  1

  0
LINE
  5
10D9
330
10D6
100
AcDbEntity
  8
20_DIM
 62
     0
100
AcDbLine
 10
145.1629408994908
 20
295.7757572781289
 30
0.0
 11
145.1629408994908
 21
243.096318047758
 31
0.0
  0
LINE
  5
10DA
330
10D6
100
AcDbEntity
  8
20_DIM
 62
     0
100
AcDbLine
 10
153.1629408994908
 20
284.5757572781282
 30
0.0
 11
153.1629408994908
 21
243.096318047758
 31
0.0
  0
LINE
  5
10DB
330
10D6
100
AcDbEntity
  8
20_DIM
 62
     0
100
AcDbLine
 10
145.1629408994908
 20
244.096318047758
 30
0.0
 11
122.1322742328211
 21
244.096318047758
 31
0.0
  0
LINE
  5
10DC
330
10D6
100
AcDbEntity
  8
20_DIM
 62
     0
100
AcDbLine
 10
145.1629408994908
 20
244.096318047758
 30
0.0
 11
153.1629408994908
 21
244.096318047758
 31
0.0
  0
LINE
  5
10DD
330
10D6
100
AcDbEntity
  8
20_DIM
 62
     0
100
AcDbLine
 10
137.1629408994908
 20
244.096318047758
 30
0.0
 11
129.1629408994908
 21
244.096318047758
 31
0.0
  0
LINE
  5
10DE
330
10D6
100
AcDbEntity
  8
20_DIM
 62
     0
100
AcDbLine
 10
161.1629408994908
 20
244.096318047758
 30
0.0
 11
169.1629408994908
 21
244.096318047758
 31
0.0
  0
INSERT
  5
10DF
330
10D6
100
AcDbEntity
  8
20_DIM
 62
     0
100
AcDbBlockReference
  2
_OPEN
 10
145.1629408994908
 20
244.096318047758
 30
0.0
 41
8.0
 42
8.0
 43
8.0
  0
INSERT
  5
10E0
330
10D6
100
AcDbEntity
  8
20_DIM
 62
     0
100
AcDbBlockReference
  2
_OPEN
 10
153.1629408994908
 20
244.096318047758
 30
0.0
 41
8.0
 42
8.0
 43
8.0
 50
180.0
  0
MTEXT
  5
10E1
330
10D6
100
AcDbEntity
  8
20_DIM
 62
     0
100
AcDbMText
 10
125.4962742328211
 20
249.096318047758
 30
0.0
 40
8.0
 41
0.0
 71
     5
 72
     1
  1
8
  0
POINT
  5
10E2
330
10D6
100
AcDbEntity
  8
DEFPOINTS
 62
     0
100
AcDbPoint
 10
145.1629408994908
 20
298.7757572781289
 30
0.0
  0
POINT
  5
10E3
330
10D6
100
AcDbEntity
  8
DEFPOINTS
 62
     0
100
AcDbPoint
 10
153.1629408994908
 20
287.5757572781282
 30
0.0
  0
POINT
  5
10E4
330
10D6
100
AcDbEntity
  8
DEFPOINTS
 62
     0
100
AcDbPoint
 10
153.1629408994908
 20
244.096318047758
 30
0.0
  0
ENDBLK
  5
10D8
330
10D6
100
AcDbEntity
  8
0
100
AcDbBlockEnd
  0
BLOCK
  5
10E6
330
10E5
100
AcDbEntity
  8
0
100
AcDbBlockBegin
  2
*D89
 70
     1
 10
0.0
 20
0.0
 30
0.0
  3
*D89
  1

  0
LINE
  5
10E8
330
10E5
100
AcDbEntity
  8
20_DIM
 62
     0
100
AcDbLine
 10
61.11689628480087
 20
305.8257572781282
 30
0.0
 11
33.20400105043007
 21
305.8257572781282
 31
0.0
  0
LINE
  5
10E9
330
10E5
100
AcDbEntity
  8
20_DIM
 62
     0
100
AcDbLine
 10
61.11689628480087
 20
300.3257572781282
 30
0.0
 11
33.20400105043007
 21
300.3257572781282
 31
0.0
  0
LINE
  5
10EA
330
10E5
100
AcDbEntity
  8
20_DIM
 62
     0
100
AcDbLine
 10
34.20400105043007
 20
305.8257572781282
 30
0.0
 11
34.20400105043007
 21
269.5177572781282
 31
0.0
  0
LINE
  5
10EB
330
10E5
100
AcDbEntity
  8
20_DIM
 62
     0
100
AcDbLine
 10
34.20400105043007
 20
305.8257572781282
 30
0.0
 11
34.20400105043007
 21
300.3257572781282
 31
0.0
  0
LINE
  5
10EC
330
10E5
100
AcDbEntity
  8
20_DIM
 62
     0
100
AcDbLine
 10
34.20400105043007
 20
313.8257572781282
 30
0.0
 11
34.20400105043007
 21
321.8257572781282
 31
0.0
  0
INSERT
  5
10ED
330
10E5
100
AcDbEntity
  8
20_DIM
 62
     0
100
AcDbBlockReference
  2
_OPEN
 10
34.20400105043007
 20
305.8257572781282
 30
0.0
 41
8.0
 42
8.0
 43
8.0
 50
270.0
  0
INSERT
  5
10EE
330
10E5
100
AcDbEntity
  8
20_DIM
 62
     0
100
AcDbBlockReference
  2
_OPEN
 10
34.20400105043007
 20
300.3257572781282
 30
0.0
 41
8.0
 42
8.0
 43
8.0
 50
90.0
  0
MTEXT
  5
10EF
330
10E5
100
AcDbEntity
  8
20_DIM
 62
     0
100
AcDbMText
 10
29.20400105043007
 20
276.9217572781282
 30
0.0
 40
8.0
 41
0.0
 71
     5
 72
     1
  1
5.5
 11
0.0
 21
1.0
 31
0.0
  0
POINT
  5
10F0
330
10E5
100
AcDbEntity
  8
DEFPOINTS
 62
     0
100
AcDbPoint
 10
62.11689628480087
 20
305.8257572781282
 30
0.0
  0
POINT
  5
10F1
330
10E5
100
AcDbEntity
  8
DEFPOINTS
 62
     0
100
AcDbPoint
 10
62.11689628480087
 20
300.3257572781282
 30
0.0
  0
POINT
  5
10F2
330
10E5
100
AcDbEntity
  8
DEFPOINTS
 62
     0
100
AcDbPoint
 10
34.20400105043007
 20
300.3257572781282
 30
0.0
  0
ENDBLK
  5
10E7
330
10E5
100
AcDbEntity
  8
0
100
AcDbBlockEnd
  0
ENDSEC
  0
SECTION
  2
ENTITIES
  0
LINE
  5
7E
330
1F
100
AcDbEntity
  8
SLD-0
 62
     0
100
AcDbLine
 10
613.5563553171387
 20
62.38335060200563
 30
0.0
 11
545.9961537177526
 21
62.38335060200563
 31
0.0
  0
LINE
  5
7F
330
1F
100
AcDbEntity
  8
SLD-0
 62
     0
100
AcDbLine
 10
613.5563553171387
 20
52.44237201923576
 30
0.0
 11
545.9961537177526
 21
52.44237201923576
 31
0.0
  0
LINE
  5
80
330
1F
100
AcDbEntity
  8
SLD-0
 62
     0
100
AcDbLine
 10
564.514998339592
 20
72.32432918477548
 30
0.0
 11
564.514998339592
 21
52.44237201923576
 31
0.0
  0
LINE
  5
81
330
1F
100
AcDbEntity
  8
SLD-0
 62
     0
100
AcDbLine
 10
948.4806315354526
 20
662.3520643241554
 30
0.0
 11
948.4806315354526
 21
131.9707081774093
 31
0.0
  0
LINE
  5
82
330
1F
100
AcDbEntity
  8
SLD-0
 62
     0
100
AcDbLine
 10
960.1759205353809
 20
12.67874331097204
 30
0.0
 11
545.9961537177526
 21
12.67874331097204
 31
0.0
  0
LINE
  5
83
330
1F
100
AcDbEntity
  8
SLD-0
 62
     0
100
AcDbLine
 10
843.5005997227748
 20
2.737764728202166
 30
0.0
 11
843.5005997227748
 21
12.67840648664887
 31
0.0
  0
LINE
  5
84
330
1F
100
AcDbEntity
  8
SLD-0
 62
     0
100
AcDbLine
 10
545.9961537177526
 20
42.50139343646589
 30
0.0
 11
545.9961537177526
 21
2.737764728202166
 31
0.0
  0
LINE
  5
85
330
1F
100
AcDbEntity
  8
SLD-0
 62
     0
100
AcDbLine
 10
613.5563553171387
 20
82.26503921189874
 30
0.0
 11
545.9961537177526
 21
82.26503921189874
 31
0.0
  0
LINE
  5
86
330
1F
100
AcDbEntity
  8
SLD-0
 62
     0
100
AcDbLine
 10
545.9961537177526
 20
131.970354285917
 30
0.0
 11
960.1692903555854
 21
131.970354285917
 31
0.0
  0
LINE
  5
87
330
1F
100
AcDbEntity
  8
SLD-0
 62
     0
100
AcDbLine
 10
613.5563553171387
 20
92.20569803751454
 30
0.0
 11
545.9961537177526
 21
92.20569803751454
 31
0.0
  0
LINE
  5
88
330
1F
100
AcDbEntity
  8
SLD-0
 62
     0
100
AcDbLine
 10
613.5563553171387
 20
22.61972189374188
 30
0.0
 11
545.9961537177526
 21
22.61972189374188
 31
0.0
  0
LINE
  5
89
330
1F
100
AcDbEntity
  8
SLD-0
 62
     0
100
AcDbLine
 10
960.1759205353809
 20
72.32438038628294
 30
0.0
 11
545.9961537177526
 21
72.32438038628294
 31
0.0
  0
LINE
  5
8A
330
1F
100
AcDbEntity
  8
SLD-0
 62
     0
100
AcDbLine
 10
875.0275864361078
 20
131.970354285917
 30
0.0
 11
875.0275864361078
 21
122.027674514362
 31
0.0
  0
LINE
  5
8B
330
1F
100
AcDbEntity
  8
SLD-0
 62
     0
100
AcDbLine
 10
545.9961537177526
 20
52.44237201923576
 30
0.0
 11
545.9961537177526
 21
131.970354285917
 31
0.0
  0
LINE
  5
8C
330
1F
100
AcDbEntity
  8
SLD-0
 62
     0
100
AcDbLine
 10
778.5638018276073
 20
131.970354285917
 30
0.0
 11
778.5638018276073
 21
2.737764728202166
 31
0.0
  0
LINE
  5
8D
330
1F
100
AcDbEntity
  8
SLD-0
 62
     0
100
AcDbLine
 10
960.1759205353809
 20
102.1463568631304
 30
0.0
 11
545.9961537177526
 21
102.1463568631304
 31
0.0
  0
LINE
  5
8E
330
1F
100
AcDbEntity
  8
SLD-0
 62
     0
100
AcDbLine
 10
902.1352006621998
 20
2.737764728202166
 30
0.0
 11
902.1352006621998
 21
12.67840648664887
 31
0.0
  0
LINE
  5
8F
330
1F
100
AcDbEntity
  8
SLD-0
 62
     0
100
AcDbLine
 10
778.5638018276073
 20
112.0870156887462
 30
0.0
 11
545.9961537177526
 21
112.0870156887462
 31
0.0
  0
LINE
  5
90
330
1F
100
AcDbEntity
  8
SLD-0
 62
     0
100
AcDbLine
 10
613.5563553171387
 20
32.56070047651178
 30
0.0
 11
545.9961537177526
 21
32.56070047651178
 31
0.0
  0
LINE
  5
91
330
1F
100
AcDbEntity
  8
SLD-0
 62
     0
100
AcDbLine
 10
960.1759205353809
 20
122.027674514362
 30
0.0
 11
545.9961537177526
 21
122.027674514362
 31
0.0
  0
LINE
  5
92
330
1F
100
AcDbEntity
  8
SLD-0
 62
     0
100
AcDbLine
 10
573.8270271388559
 20
42.50139343646589
 30
0.0
 11
573.8270271388559
 21
2.737764728202166
 31
0.0
  0
LINE
  5
93
330
1F
100
AcDbEntity
  8
SLD-0
 62
     0
100
AcDbLine
 10
545.9961537177526
 20
42.50139343646589
 30
0.0
 11
960.1759205353809
 21
42.50139343646589
 31
0.0
  0
LINE
  5
94
330
1F
100
AcDbEntity
  8
SLD-0
 62
     0
100
AcDbLine
 10
929.761538955772
 20
12.67840648664887
 30
0.0
 11
929.761538955772
 21
42.50139343646589
 31
0.0
  0
LINE
  5
95
330
1F
100
AcDbEntity
  8
SLD-0
 62
     0
100
AcDbLine
 10
929.761538955772
 20
22.61940213658787
 30
0.0
 11
960.1759205353809
 21
22.61940213658787
 31
0.0
  0
LINE
  5
96
330
1F
100
AcDbEntity
  8
SLD-0
 62
     0
100
AcDbLine
 10
628.2470405666675
 20
102.1463568631304
 30
0.0
 11
628.2470405666675
 21
131.970354285917
 31
0.0
  0
LINE
  5
97
330
1F
100
AcDbEntity
  8
SLD-0
 62
     0
100
AcDbLine
 10
589.1490714540533
 20
122.027674514362
 30
0.0
 11
589.1490714540533
 21
82.26503921189874
 31
0.0
  0
LINE
  5
98
330
1F
100
AcDbEntity
  8
SLD-0
 62
     0
100
AcDbLine
 10
613.5563553171387
 20
131.970354285917
 30
0.0
 11
613.5563553171387
 21
2.737764728202166
 31
0.0
  0
LINE
  5
99
330
1F
100
AcDbEntity
  8
SLD-0
 62
     0
100
AcDbLine
 10
580.8884029394915
 20
72.32432918477548
 30
0.0
 11
580.8884029394915
 21
52.44237201923576
 31
0.0
  0
LINE
  5
9A
330
1F
100
AcDbEntity
  8
SLD-0
 62
     0
100
AcDbLine
 10
597.261807539391
 20
72.32432918477548
 30
0.0
 11
597.261807539391
 21
52.44237201923576
 31
0.0
  0
LINE
  5
9B
330
1F
100
AcDbEntity
  8
SLD-0
 62
     0
100
AcDbLine
 10
664.0811460583964
 20
102.1463568631304
 30
0.0
 11
664.0811460583964
 21
131.970354285917
 31
0.0
  0
LINE
  5
9C
330
1F
100
AcDbEntity
  8
SLD-0
 62
     0
100
AcDbLine
 10
574.6335901062787
 20
57.44772134439671
 30
0.0
 11
570.4540958168323
 21
57.44772134439671
 31
0.0
  0
LINE
  5
9D
330
1F
100
AcDbEntity
  8
SLD-0
 62
     0
100
AcDbLine
 10
570.4540958168323
 20
57.44772134439671
 30
0.0
 11
572.5438429614385
 21
53.91505355199575
 31
0.0
  0
LINE
  5
9E
330
1F
100
AcDbEntity
  8
SLD-0
 62
     0
100
AcDbLine
 10
572.5438429614385
 20
53.91505355199575
 30
0.0
 11
576.7171327622999
 21
60.96990059625335
 31
0.0
  0
LINE
  5
9F
330
1F
100
AcDbEntity
  8
SLD-0
 62
     0
100
AcDbLine
 10
960.1759205353809
 20
674.0473533240836
 30
0.0
 11
1.162222541264555
 21
674.0473533240836
 31
0.0
  0
LINE
  5
A0
330
1F
100
AcDbEntity
  8
SLD-0
 62
     0
100
AcDbLine
 10
948.4806315354526
 20
662.3520643241554
 30
0.0
 11
12.85751154119271
 21
662.3520643241554
 31
0.0
  0
LINE
  5
A1
330
1F
100
AcDbEntity
  8
SLD-0
 62
     0
100
AcDbLine
 10
1.162222541264555
 20
674.0473533240836
 30
0.0
 11
1.162222541264555
 21
2.737764728202166
 31
0.0
  0
LINE
  5
A2
330
1F
100
AcDbEntity
  8
SLD-0
 62
     0
100
AcDbLine
 10
12.85751154119271
 20
662.3520643241554
 30
0.0
 11
12.85751154119271
 21
14.43305372813043
 31
0.0
  0
LINE
  5
A3
330
1F
100
AcDbEntity
  8
SLD-0
 62
     0
100
AcDbLine
 10
12.85751154119271
 20
104.4867790275779
 30
0.0
 11
1.162222541264555
 21
104.4867790275779
 31
0.0
  0
LINE
  5
A4
330
1F
100
AcDbEntity
  8
SLD-0
 62
     0
100
AcDbLine
 10
1.162222541264555
 20
221.4396690268604
 30
0.0
 11
12.85751154119271
 21
221.4396690268604
 31
0.0
  0
LINE
  5
A5
330
1F
100
AcDbEntity
  8
SLD-0
 62
     0
100
AcDbLine
 10
1.162222541264555
 20
455.3454490254254
 30
0.0
 11
12.85751154119271
 21
455.3454490254254
 31
0.0
  0
LINE
  5
A6
330
1F
100
AcDbEntity
  8
SLD-0
 62
     0
100
AcDbLine
 10
1.162222541264555
 20
338.3925590261429
 30
0.0
 11
24.55280054112109
 21
338.3925590261429
 31
0.0
  0
LINE
  5
A7
330
1F
100
AcDbEntity
  8
SLD-0
 62
     0
100
AcDbLine
 10
1.162222541264555
 20
2.737764728202166
 30
0.0
 11
960.1759205353809
 21
2.737764728202166
 31
0.0
  0
LINE
  5
A8
330
1F
100
AcDbEntity
  8
SLD-0
 62
     0
100
AcDbLine
 10
12.85751154119271
 20
14.43305372813043
 30
0.0
 11
545.9961537177526
 21
14.43305372813043
 31
0.0
  0
LINE
  5
A9
330
1F
100
AcDbEntity
  8
SLD-0
 62
     0
100
AcDbLine
 10
129.8104015404754
 20
2.737764728202166
 30
0.0
 11
129.8104015404754
 21
14.43305372813043
 31
0.0
  0
LINE
  5
AA
330
1F
100
AcDbEntity
  8
SLD-0
 62
     0
100
AcDbLine
 10
246.7632915397578
 20
14.43305372813043
 30
0.0
 11
246.7632915397578
 21
2.737764728202166
 31
0.0
  0
LINE
  5
AB
330
1F
100
AcDbEntity
  8
SLD-0
 62
     0
100
AcDbLine
 10
363.7161815390402
 20
2.737764728202166
 30
0.0
 11
363.7161815390402
 21
14.43305372813043
 31
0.0
  0
LINE
  5
AC
330
1F
100
AcDbEntity
  8
SLD-0
 62
     0
100
AcDbLine
 10
12.85751154119271
 20
572.298339024708
 30
0.0
 11
1.162222541264555
 21
572.298339024708
 31
0.0
  0
LINE
  5
AD
330
1F
100
AcDbEntity
  8
SLD-0
 62
     0
100
AcDbLine
 10
129.8104015404754
 20
662.3520643241554
 30
0.0
 11
129.8104015404754
 21
674.0473533240836
 31
0.0
  0
LINE
  5
AE
330
1F
100
AcDbEntity
  8
SLD-0
 62
     0
100
AcDbLine
 10
246.7632915397578
 20
674.0473533240836
 30
0.0
 11
246.7632915397578
 21
662.3520643241554
 31
0.0
  0
LINE
  5
AF
330
1F
100
AcDbEntity
  8
SLD-0
 62
     0
100
AcDbLine
 10
363.7161815390402
 20
662.3520643241554
 30
0.0
 11
363.7161815390402
 21
674.0473533240836
 31
0.0
  0
LINE
  5
B0
330
1F
100
AcDbEntity
  8
SLD-0
 62
     0
100
AcDbLine
 10
597.6219615376052
 20
662.3520643241554
 30
0.0
 11
597.6219615376052
 21
674.0473533240836
 31
0.0
  0
LINE
  5
B1
330
1F
100
AcDbEntity
  8
SLD-0
 62
     0
100
AcDbLine
 10
960.1759205353809
 20
2.737764728202166
 30
0.0
 11
960.1759205353809
 21
674.0473533240836
 31
0.0
  0
LINE
  5
B2
330
1F
100
AcDbEntity
  8
SLD-0
 62
     0
100
AcDbLine
 10
480.6690715383227
 20
2.737764728202166
 30
0.0
 11
480.6690715383227
 21
26.12834272805867
 31
0.0
  0
LINE
  5
B3
330
1F
100
AcDbEntity
  8
SLD-0
 62
     0
100
AcDbLine
 10
948.4806315354526
 20
455.3454490254254
 30
0.0
 11
960.1759205353809
 21
455.3454490254254
 31
0.0
  0
LINE
  5
B4
330
1F
100
AcDbEntity
  8
SLD-0
 62
     0
100
AcDbLine
 10
948.4806315354526
 20
221.4396690268604
 30
0.0
 11
960.1759205353809
 21
221.4396690268604
 31
0.0
  0
LINE
  5
B5
330
1F
100
AcDbEntity
  8
SLD-0
 62
     0
100
AcDbLine
 10
960.1759205353809
 20
338.3925590261429
 30
0.0
 11
936.7853425355245
 21
338.3925590261429
 31
0.0
  0
LINE
  5
B6
330
1F
100
AcDbEntity
  8
SLD-0
 62
     0
100
AcDbLine
 10
714.5748515368878
 20
674.0473533240836
 30
0.0
 11
714.5748515368878
 21
662.3520643241554
 31
0.0
  0
LINE
  5
B7
330
1F
100
AcDbEntity
  8
SLD-0
 62
     0
100
AcDbLine
 10
831.5277415361702
 20
662.3520643241554
 30
0.0
 11
831.5277415361702
 21
674.0473533240836
 31
0.0
  0
LINE
  5
B8
330
1F
100
AcDbEntity
  8
SLD-0
 62
     0
100
AcDbLine
 10
480.6690715383227
 20
674.0473533240836
 30
0.0
 11
480.6690715383227
 21
650.656775324227
 31
0.0
  0
LINE
  5
B9
330
1F
100
AcDbEntity
  8
SLD-0
 62
     0
100
AcDbLine
 10
960.1759205353809
 20
572.298339024708
 30
0.0
 11
948.4806315354526
 21
572.298339024708
 31
0.0
  0
LINE
  5
BA
330
1F
100
AcDbEntity
  8
SLD-0
 62
     0
100
AcDbLine
 10
591.2769001304323
 20
57.39454379742858
 30
0.0
 11
587.0974058407521
 21
57.39454379742858
 31
0.0
  0
LINE
  5
BB
330
1F
100
AcDbEntity
  8
SLD-0
 62
     0
100
AcDbLine
 10
587.0974058407521
 20
57.39454379742858
 30
0.0
 11
589.1871529855922
 21
53.86187600502763
 31
0.0
  0
LINE
  5
BC
330
1F
100
AcDbEntity
  8
SLD-0
 62
     0
100
AcDbLine
 10
589.1871529855922
 20
53.86187600502763
 30
0.0
 11
593.3604427864535
 21
60.91672304928517
 31
0.0
  0
LINE
  5
BD
330
1F
100
AcDbEntity
  8
SLD-0
 62
     0
100
AcDbLine
 10
603.4708104406516
 20
57.39454379742858
 30
0.0
 11
605.5605575854918
 21
53.86187600502763
 31
0.0
  0
LINE
  5
BE
330
1F
100
AcDbEntity
  8
SLD-0
 62
     0
100
AcDbLine
 10
607.6503047303319
 20
57.39454379742858
 30
0.0
 11
603.4708104406516
 21
57.39454379742858
 31
0.0
  0
LINE
  5
BF
330
1F
100
AcDbEntity
  8
SLD-0
 62
     0
100
AcDbLine
 10
605.5605575854918
 20
53.86187600502763
 30
0.0
 11
609.7338473863531
 21
60.91672304928517
 31
0.0
  0
INSERT
  5
C0
330
1F
100
AcDbEntity
  8
0
  6
CONTINUOUS
 62
     0
100
AcDbBlockReference
  2
ﾌﾞﾛｯｸ1
 10
-976.6388187449082
 20
-8.949385928276627
 30
0.0
 41
2.33905779998565
 42
2.33905779998565
 43
2.33905779998565
  0
INSERT
  5
C1
330
1F
100
AcDbEntity
  8
0
  6
CONTINUOUS
 62
     0
100
AcDbBlockReference
  2
ﾌﾞﾛｯｸ1
 10
-980.137495970146
 20
-8.949385928276627
 30
0.0
 41
2.33905779998565
 42
2.33905779998565
 43
2.33905779998565
  0
INSERT
  5
C2
330
1F
100
AcDbEntity
  8
0
  6
CONTINUOUS
 62
     0
100
AcDbBlockReference
  2
ﾌﾞﾛｯｸ1
 10
-958.6358150178493
 20
-8.955556294920314
 30
0.0
 41
2.33905779998565
 42
2.33905779998565
 43
2.33905779998565
  0
INSERT
  5
C3
330
1F
100
AcDbEntity
  8
0
  6
CONTINUOUS
 62
     0
100
AcDbBlockReference
  2
ﾌﾞﾛｯｸ1
 10
-962.1344922430861
 20
-8.955556294920314
 30
0.0
 41
2.33905779998565
 42
2.33905779998565
 43
2.33905779998565
  0
INSERT
  5
C4
330
1F
100
AcDbEntity
  8
0
  6
CONTINUOUS
 62
     0
100
AcDbBlockReference
  2
ﾌﾞﾛｯｸ1
 10
-995.2764002526222
 20
-8.957524271726072
 30
0.0
 41
2.33905779998565
 42
2.33905779998565
 43
2.33905779998565
  0
INSERT
  5
C5
330
1F
100
AcDbEntity
  8
0
  6
CONTINUOUS
 62
     0
100
AcDbBlockReference
  2
ﾌﾞﾛｯｸ1
 10
-965.6331694683239
 20
-8.955556294920314
 30
0.0
 41
2.33905779998565
 42
2.33905779998565
 43
2.33905779998565
  0
MTEXT
  5
C7
330
1F
100
AcDbEntity
  8
0
  6
CONTINUOUS
 62
     0
100
AcDbMText
 10
5.060652207985413
 20
282.6481812620846
 30
0.0
 40
4.332129966978787
 41
0.0
 71
     1
 72
     1
  1
D
  0
MTEXT
  5
C8
330
1F
100
AcDbEntity
  8
0
  6
CONTINUOUS
 62
     0
100
AcDbMText
 10
5.060652207985413
 20
165.6952912628021
 30
0.0
 40
4.332129966978787
 41
0.0
 71
     1
 72
     1
  1
E
  0
MTEXT
  5
C9
330
1F
100
AcDbEntity
  8
0
  6
CONTINUOUS
 62
     0
100
AcDbMText
 10
5.060652207985413
 20
48.74240126351964
 30
0.0
 40
4.332129966978787
 41
0.0
 71
     1
 72
     1
  1
F
  0
MTEXT
  5
CA
330
1F
100
AcDbEntity
  8
0
  6
CONTINUOUS
 62
     0
100
AcDbMText
 10
5.060652207985413
 20
399.6010712613671
 30
0.0
 40
4.332129966978787
 41
0.0
 71
     1
 72
     1
  1
C
  0
MTEXT
  5
CB
330
1F
100
AcDbEntity
  8
0
  6
CONTINUOUS
 62
     0
100
AcDbMText
 10
70.35934912409539
 20
11.31748581998048
 30
0.0
 40
4.332129966978787
 41
0.0
 71
     1
 72
     1
  1
1
  0
MTEXT
  5
CC
330
1F
100
AcDbEntity
  8
0
  6
CONTINUOUS
 62
     0
100
AcDbMText
 10
186.3376317068733
 20
11.31748581998048
 30
0.0
 40
4.332129966978787
 41
0.0
 71
     1
 72
     1
  1
2
  0
MTEXT
  5
CD
330
1F
100
AcDbEntity
  8
0
  6
CONTINUOUS
 62
     0
100
AcDbMText
 10
303.2905217061557
 20
11.31748581998048
 30
0.0
 40
4.332129966978787
 41
0.0
 71
     1
 72
     1
  1
3
  0
MTEXT
  5
CE
330
1F
100
AcDbEntity
  8
0
  6
CONTINUOUS
 62
     0
100
AcDbMText
 10
420.2434117054381
 20
11.31748581998048
 30
0.0
 40
4.332129966978787
 41
0.0
 71
     1
 72
     1
  1
4
  0
MTEXT
  5
CF
330
1F
100
AcDbEntity
  8
0
  6
CONTINUOUS
 62
     0
100
AcDbMText
 10
5.060652207985413
 20
516.5539612606497
 30
0.0
 40
4.332129966978787
 41
0.0
 71
     1
 72
     1
  1
B
  0
MTEXT
  5
D0
330
1F
100
AcDbEntity
  8
0
  6
CONTINUOUS
 62
     0
100
AcDbMText
 10
5.060652207985413
 20
633.5068512599321
 30
0.0
 40
4.332129966978787
 41
0.0
 71
     1
 72
     1
  1
A
  0
MTEXT
  5
D1
330
1F
100
AcDbEntity
  8
0
  6
CONTINUOUS
 62
     0
100
AcDbMText
 10
303.2905217061557
 20
670.9317854159337
 30
0.0
 40
4.332129966978787
 41
0.0
 71
     1
 72
     1
  1
3
  0
MTEXT
  5
D2
330
1F
100
AcDbEntity
  8
0
  6
CONTINUOUS
 62
     0
100
AcDbMText
 10
186.3376317068733
 20
670.9317854159337
 30
0.0
 40
4.332129966978787
 41
0.0
 71
     1
 72
     1
  1
2
  0
MTEXT
  5
D3
330
1F
100
AcDbEntity
  8
0
  6
CONTINUOUS
 62
     0
100
AcDbMText
 10
70.35934912409539
 20
670.9317854159337
 30
0.0
 40
4.332129966978787
 41
0.0
 71
     1
 72
     1
  1
1
  0
MTEXT
  5
D4
330
1F
100
AcDbEntity
  8
0
  6
CONTINUOUS
 62
     0
100
AcDbMText
 10
537.1963017047206
 20
670.9317854159337
 30
0.0
 40
4.332129966978787
 41
0.0
 71
     1
 72
     1
  1
5
  0
MTEXT
  5
D5
330
1F
100
AcDbEntity
  8
0
  6
CONTINUOUS
 62
     0
100
AcDbMText
 10
952.3790612021734
 20
399.6010712613671
 30
0.0
 40
4.332129966978787
 41
0.0
 71
     1
 72
     1
  1
C
  0
MTEXT
  5
D6
330
1F
100
AcDbEntity
  8
0
  6
CONTINUOUS
 62
     0
100
AcDbMText
 10
952.3790612021734
 20
282.6481812620846
 30
0.0
 40
4.332129966978787
 41
0.0
 71
     1
 72
     1
  1
D
  0
MTEXT
  5
D7
330
1F
100
AcDbEntity
  8
0
  6
CONTINUOUS
 62
     0
100
AcDbMText
 10
420.2434117054381
 20
670.9317854159337
 30
0.0
 40
4.332129966978787
 41
0.0
 71
     1
 72
     1
  1
4
  0
MTEXT
  5
D8
330
1F
100
AcDbEntity
  8
0
  6
CONTINUOUS
 62
     0
100
AcDbMText
 10
654.1491917040031
 20
670.9317854159337
 30
0.0
 40
4.332129966978787
 41
0.0
 71
     1
 72
     1
  1
6
  0
MTEXT
  5
D9
330
1F
100
AcDbEntity
  8
0
  6
CONTINUOUS
 62
     0
100
AcDbMText
 10
771.1020817032855
 20
670.9317854159337
 30
0.0
 40
4.332129966978787
 41
0.0
 71
     1
 72
     1
  1
7
  0
MTEXT
  5
DA
330
1F
100
AcDbEntity
  8
0
  6
CONTINUOUS
 62
     0
100
AcDbMText
 10
888.0549717025681
 20
670.9317854159337
 30
0.0
 40
4.332129966978787
 41
0.0
 71
     1
 72
     1
  1
8
  0
MTEXT
  5
DB
330
1F
100
AcDbEntity
  8
0
  6
CONTINUOUS
 62
     0
100
AcDbMText
 10
952.3790612021734
 20
633.5068512599321
 30
0.0
 40
4.332129966978787
 41
0.0
 71
     1
 72
     1
  1
A
  0
MTEXT
  5
DC
330
1F
100
AcDbEntity
  8
0
  6
CONTINUOUS
 62
     0
100
AcDbMText
 10
952.3790612021734
 20
516.5539612606497
 30
0.0
 40
4.332129966978787
 41
0.0
 71
     1
 72
     1
  1
B
  0
MTEXT
  5
DE
330
1F
100
AcDbEntity
  8
SLD-0
 62
     0
100
AcDbMText
 10
906.062747356883
 20
9.918697624978222
 30
0.0
 40
3.508586699978474
 41
0.0
 71
     1
 72
     1
  1
SHEET 1 OF 1
  0
MTEXT
  5
E0
330
1F
100
AcDbEntity
  8
SLD-0
 62
     0
100
AcDbMText
 10
571.4276537958749
 20
98.67858184552784
 30
0.0
 40
1.856627128738609
 41
0.0
 71
     1
 72
     1
  1
<
  0
MTEXT
  5
E1
330
1F
100
AcDbEntity
  8
SLD-0
 62
     0
100
AcDbMText
 10
571.4302324973975
 20
97.14409103880689
 30
0.0
 40
1.856627128738609
 41
0.0
 71
     1
 72
     1
  1
=
  0
MTEXT
  5
E2
330
1F
100
AcDbEntity
  8
SLD-0
 62
     0
100
AcDbMText
 10
571.4276537958749
 20
118.5598994967595
 30
0.0
 40
1.856627128738609
 41
0.0
 71
     1
 72
     1
  1
<
  0
MTEXT
  5
E3
330
1F
100
AcDbEntity
  8
SLD-0
 62
     0
100
AcDbMText
 10
571.4302324973975
 20
117.0254086900385
 30
0.0
 40
1.856627128738609
 41
0.0
 71
     1
 72
     1
  1
=
  0
MTEXT
  5
E4
330
1F
100
AcDbEntity
  8
SLD-0
 62
     0
100
AcDbMText
 10
571.4276537958749
 20
108.6192406711436
 30
0.0
 40
1.856627128738609
 41
0.0
 71
     1
 72
     1
  1
<
  0
MTEXT
  5
E5
330
1F
100
AcDbEntity
  8
SLD-0
 62
     0
100
AcDbMText
 10
571.4302324973975
 20
107.0847498644227
 30
0.0
 40
1.856627128738609
 41
0.0
 71
     1
 72
     1
  1
=
  0
MTEXT
  5
E6
330
1F
100
AcDbEntity
  8
SLD-0
 62
     0
100
AcDbMText
 10
601.5622115899404
 20
88.98244628429092
 30
0.0
 40
3.508586699978474
 41
0.0
 71
     2
 72
     1
  1
±0.2
  0
MTEXT
  5
E7
330
1F
100
AcDbEntity
  8
SLD-0
 62
     0
100
AcDbMText
 10
601.6401803095043
 20
98.91706576418221
 30
0.0
 40
3.508586699978474
 41
0.0
 71
     2
 72
     1
  1
±0.15
  0
MTEXT
  5
E8
330
1F
100
AcDbEntity
  8
SLD-0
 62
     0
100
AcDbMText
 10
601.6508399546998
 20
108.8637639355225
 30
0.0
 40
3.508586699978474
 41
0.0
 71
     2
 72
     1
  1
±0.1
  0
MTEXT
  5
E9
330
1F
100
AcDbEntity
  8
SLD-0
 62
     0
100
AcDbMText
 10
601.5506380987208
 20
118.8044227611383
 30
0.0
 40
3.508586699978474
 41
0.0
 71
     2
 72
     1
  1
±0.05
  0
MTEXT
  5
EB
330
1F
100
AcDbEntity
  8
SLD-0
 62
     0
100
AcDbMText
 10
554.006689230408
 20
98.62219129251235
 30
0.0
 40
3.508586699978474
 41
0.0
 71
     1
 72
     1
  1
30  <  L       80
  0
MTEXT
  5
ED
330
1F
100
AcDbEntity
  8
SLD-0
 62
     0
100
AcDbMText
 10
554.0386894731735
 20
88.97695509372107
 30
0.0
 40
3.508586699978474
 41
0.0
 71
     1
 72
     1
  1
80  <  L
  0
MTEXT
  5
EF
330
1F
100
AcDbEntity
  8
SLD-0
 62
     0
100
AcDbMText
 10
556.6128481208264
 20
108.7737171682183
 30
0.0
 40
3.508586699978474
 41
0.0
 71
     1
 72
     1
  1
6  <  L       30
  0
MTEXT
  5
F1
330
1F
100
AcDbEntity
  8
SLD-0
 62
     0
100
AcDbMText
 10
566.8506151801846
 20
118.8044227611383
 30
0.0
 40
3.508586699978474
 41
0.0
 71
     1
 72
     1
  1
L         6
  0
MTEXT
  5
F2
330
1F
100
AcDbEntity
  8
SLD-0
 62
     0
100
AcDbMText
 10
554.7857221714655
 20
128.6688598767141
 30
0.0
 40
3.508586699978474
 41
0.0
 71
     1
 72
     1
  1
±GENERAL TOLERANCE:
  0
MTEXT
  5
F4
330
1F
100
AcDbEntity
  8
SLD-0
 62
     0
100
AcDbMText
 10
933.1450457449788
 20
19.45676960015217
 30
0.0
 40
3.508586699978474
 41
0.0
 71
     1
 72
     1
  1
UNIT:   mm
  0
MTEXT
  5
F5
330
1F
100
AcDbEntity
  8
SLD-0
 62
     0
100
AcDbMText
 10
780.6130827497283
 20
70.41426795723282
 30
0.0
 40
3.508586699978474
 41
0.0
 71
     1
 72
     1
  1
PARTS NAME
  0
MTEXT
  5
F6
330
1F
100
AcDbEntity
  8
SLD-0
 62
     0
100
AcDbMText
 10
939.296613592577
 20
36.5847921416364
 30
0.0
 40
6.807632805452871
 41
0.0
 71
     1
 72
     1
  1
A3
  0
MTEXT
  5
F7
330
1F
100
AcDbEntity
  8
SLD-0
 62
     0
100
AcDbMText
 10
849.0952505325592
 20
9.918697624978222
 30
0.0
 40
3.508586699978474
 41
0.0
 71
     1
 72
     1
  1
SCALE:1:2
  0
MTEXT
  5
F8
330
1F
100
AcDbEntity
  8
SLD-0
 62
     0
100
AcDbMText
 10
780.9743510736749
 20
39.99625228269608
 30
0.0
 40
3.508586699978474
 41
0.0
 71
     1
 72
     1
  1
DWG NO.
  0
MTEXT
  5
F9
330
1F
100
AcDbEntity
  8
SLD-0
 62
     0
100
AcDbMText
 10
616.28874943909
 20
10.41138970209423
 30
0.0
 40
3.505312019058494
 41
0.0
 71
     1
 72
     1
  1
DATE:
  0
MTEXT
  5
FA
330
1F
100
AcDbEntity
  8
SLD-0
 62
     0
100
AcDbMText
 10
615.5679576976737
 20
70.79182078193492
 30
0.0
 40
3.508586699978474
 41
0.0
 71
     1
 72
     1
  1
MATERIAL:
  0
MTEXT
  5
FB
330
1F
100
AcDbEntity
  8
SLD-0
 62
     0
100
AcDbMText
 10
560.0617700394773
 20
9.49417283516857
 30
0.0
 40
3.508586699978474
 41
0.0
 71
     2
 72
     1
  1
APPROVED
  0
MTEXT
  5
FC
330
1F
100
AcDbEntity
  8
SLD-0
 62
     0
100
AcDbMText
 10
560.8111803116644
 20
19.6927215984399
 30
0.0
 40
3.508586699978474
 41
0.0
 71
     2
 72
     1
  1
PLANNED
  0
MTEXT
  5
FD
330
1F
100
AcDbEntity
  8
SLD-0
 62
     0
100
AcDbMText
 10
560.3187707197519
 20
29.2192567129751
 30
0.0
 40
3.508586699978474
 41
0.0
 71
     2
 72
     1
  1
DRAWN
  0
MTEXT
  5
FE
330
1F
100
AcDbEntity
  8
SLD-0
 62
     0
100
AcDbMText
 10
585.9375678134736
 20
39.4116824219588
 30
0.0
 40
3.508586699978474
 41
0.0
 71
     1
 72
     1
  1
NAME
  0
MTEXT
  5
FF
330
1F
100
AcDbEntity
  8
SLD-0
 62
     0
100
AcDbMText
 10
616.28874943909
 20
40.60095539491863
 30
0.0
 40
3.508586699978474
 41
0.0
 71
     1
 72
     1
  1
FINISH:
  0
MTEXT
  5
100
330
1F
100
AcDbEntity
  8
SLD-0
 62
     0
100
AcDbMText
 10
789.4304751181508
 20
128.8123669061195
 30
0.0
 40
3.508586699978474
 41
0.0
 71
     1
 72
     1
  1
DEBURR AND BREAK SHARP EDGES
  0
MTEXT
  5
101
330
1F
100
AcDbEntity
  8
SLD-0
 62
     0
100
AcDbMText
 10
891.9562917897933
 20
128.8123669061195
 30
0.0
 40
3.508586699978474
 41
0.0
 71
     1
 72
     1
  1
DO NOT SCALE DRAWING
  0
MTEXT
  5
102
330
1F
100
AcDbEntity
  8
SLD-0
 62
     0
100
AcDbMText
 10
781.1269833651874
 20
100.307532326698
 30
0.0
 40
3.508586699978474
 41
0.0
 71
     1
 72
     1
  1
MODEL
  0
MTEXT
  5
103
330
1F
100
AcDbEntity
  8
SLD-0
 62
     0
100
AcDbMText
 10
781.7661241405019
 20
9.918697624978222
 30
0.0
 40
3.508586699978474
 41
0.0
 71
     1
 72
     1
  1
REVISION
  0
MTEXT
  5
104
330
1F
100
AcDbEntity
  8
SLD-0
 62
     0
100
AcDbMText
 10
952.3790612021734
 20
165.6952912628021
 30
0.0
 40
4.332129966978787
 41
0.0
 71
     1
 72
     1
  1
E
  0
MTEXT
  5
105
330
1F
100
AcDbEntity
  8
SLD-0
 62
     0
100
AcDbMText
 10
564.045967383152
 20
79.41426457683758
 30
0.0
 40
3.508586699978474
 41
0.0
 71
     1
 72
     1
  1
FINISH SYMBOL
  0
MTEXT
  5
106
330
1F
100
AcDbEntity
  8
SLD-0
 62
     0
100
AcDbMText
 10
552.149227539179
 20
59.386288308899
 30
0.0
 40
3.508586699978474
 41
0.0
 71
     1
 72
     1
  1
JIS
  0
MTEXT
  5
107
330
1F
100
AcDbEntity
  8
SLD-0
 62
     0
100
AcDbMText
 10
554.8170409033098
 20
68.94276075124816
 30
0.0
 40
3.094378547975651
 41
0.0
 71
     2
 72
     1
  1
ニイヌマ
  0
MTEXT
  5
108
330
1F
100
AcDbEntity
  8
SLD-0
 62
     0
100
AcDbMText
 10
603.321131080028
 20
60.63707012863938
 30
0.0
 40
2.475502838240177
 41
0.0
 71
     1
 72
     1
  1
1.6
  0
MTEXT
  5
109
330
1F
100
AcDbEntity
  8
SLD-0
 62
     0
100
AcDbMText
 10
586.9477264801285
 20
60.63707012863938
 30
0.0
 40
2.475502838240177
 41
0.0
 71
     1
 72
     1
  1
6.3
  0
MTEXT
  5
10A
330
1F
100
AcDbEntity
  8
SLD-0
 62
     0
100
AcDbMText
 10
570.7212980025126
 20
60.69024767560751
 30
0.0
 40
2.475502838240177
 41
0.0
 71
     1
 72
     1
  1
25
  0
MTEXT
  5
10C
330
1F
100
AcDbEntity
  8
中心線
 62
     0
100
AcDbMText
 10
839.162504436105
 20
91.5916889819635
 30
0.0
 40
7.426508514954437
 41
0.0
 71
     1
 72
     1
  1
{直管型LED}
1001
ACAD
1000
ACAD_MTEXT_DEFINED_HEIGHT_BEGIN
1070
    46
1040
8.057761738725565
1000
ACAD_MTEXT_DEFINED_HEIGHT_END
  0
MTEXT
  5
10D
330
1F
100
AcDbEntity
  8
中心線
 62
     0
100
AcDbMText
 10
641.0820835931221
 20
11.41104095224196
 30
0.0
 40
6.188757095717397
 41
0.0
 71
     1
 72
     1
  1
{2018.03.14}
1001
ACAD
1000
ACAD_MTEXT_DEFINED_HEIGHT_BEGIN
1070
    46
1040
6.188757095717397
1000
ACAD_MTEXT_DEFINED_HEIGHT_END
  0
MTEXT
  5
10E
330
1F
100
AcDbEntity
  8
SLD-0
 62
     0
100
AcDbMText
 10
615.2428733057973
 20
100.3801357533732
 30
0.0
 40
3.508586699978474
 41
0.0
 71
     1
 72
     1
  1
MODEL No.
  0
MTEXT
  5
10F
330
1F
100
AcDbEntity
  8
中心線
 62
     0
100
AcDbMText
 10
646.0975531128936
 20
91.5916889819635
 30
0.0
 40
7.426508514954437
 41
0.0
 71
     1
 72
     1
  1
{NSC110-50N}
1001
ACAD
1000
ACAD_MTEXT_DEFINED_HEIGHT_BEGIN
1070
    46
1040
7.426508514954437
1000
ACAD_MTEXT_DEFINED_HEIGHT_END
  0
MTEXT
  5
110
330
1F
100
AcDbEntity
  8
中心線
 62
     0
100
AcDbMText
 10
834.3555792375862
 20
117.1705080699984
 30
0.0
 40
7.426508514954437
 41
0.0
 71
     1
 72
     1
  1
ニイヌマ株式会社
  0
INSERT
  5
A4E
330
1F
100
AcDbEntity
  8
中心線
 62
     0
100
AcDbBlockReference
  2
SW_TABLEANNOTATION_1234561
 10
786.0178155898498
 20
643.7715177735402
 30
0.0
 41
1.939013691437769
 42
1.939013691437769
 43
1.939013691437769
  0
MTEXT
  5
AE9
330
1F
100
AcDbEntity
  8
中心線
 62
     0
100
AcDbMText
 10
786.4060226252003
 20
417.0185117402053
 30
0.0
 40
3.351149128566108
 41
0.0
 71
     1
 72
     1
  1
{※照明器具の消費電力はJIS C　8105-3の試験方法による。}
1001
ACAD
1000
ACAD_MTEXT_DEFINED_HEIGHT_BEGIN
1070
    46
1040
2.025
1000
ACAD_MTEXT_DEFINED_HEIGHT_END
  0
MTEXT
  5
AEC
330
1F
100
AcDbEntity
  8
中心線
 62
     0
100
AcDbMText
 10
837.8075774288058
 20
61.78329482137957
 30
0.0
 40
7.426508514954437
 41
0.0
 71
     1
 72
     1
  1
{110形電源内蔵}
1001
ACAD
1000
ACAD_MTEXT_DEFINED_HEIGHT_BEGIN
1070
    46
1040
8.481072724077968
1000
ACAD_MTEXT_DEFINED_HEIGHT_END
  0
LINE
  5
F99
330
1F
100
AcDbEntity
  8
03_拡散カバー
  6
CONTINUOUS
 62
     0
100
AcDbLine
 10
174.1629408994908
 20
304.586255778128
 30
0.0
 11
449.9339157593407
 21
304.586255778128
 31
0.0
  0
LINE
  5
F9A
330
1F
100
AcDbEntity
  8
03_拡散カバー
  6
CONTINUOUS
 62
     0
100
AcDbLine
 10
457.9339157593407
 20
304.586255778128
 30
0.0
 11
732.1629408994908
 21
304.586255778128
 31
0.0
  0
LINE
  5
F9B
330
1F
100
AcDbEntity
  8
03_拡散カバー
  6
CONTINUOUS
 62
     0
100
AcDbLine
 10
174.1629408994908
 20
318.5757572781282
 30
0.0
 11
449.8646409280012
 21
318.5757572781282
 31
0.0
  0
LINE
  5
F9C
330
1F
100
AcDbEntity
  8
03_拡散カバー
  6
CONTINUOUS
 62
     0
100
AcDbLine
 10
457.8646409280012
 20
318.5757572781282
 30
0.0
 11
732.1629408994908
 21
318.5757572781282
 31
0.0
  0
LINE
  5
F9D
330
1F
100
AcDbEntity
  8
03_拡散カバー
  6
CONTINUOUS
 62
     0
100
AcDbLine
 10
174.1629413994909
 20
428.15140296212
 30
0.0
 11
449.8909300716208
 21
428.15140296212
 31
0.0
  0
LINE
  5
F9E
330
1F
100
AcDbEntity
  8
03_拡散カバー
  6
CONTINUOUS
 62
     0
100
AcDbLine
 10
457.8909300716208
 20
428.15140296212
 30
0.0
 11
732.1629408994908
 21
428.15140296212
 31
0.0
  0
LINE
  5
F9F
330
1F
100
AcDbEntity
  8
03_拡散カバー
  6
CONTINUOUS
 62
     0
100
AcDbLine
 10
174.1629413994909
 20
397.2989544717772
 30
0.0
 11
447.8074615788104
 21
397.2989544717772
 31
0.0
  0
LINE
  5
FA0
330
1F
100
AcDbEntity
  8
03_拡散カバー
  6
CONTINUOUS
 62
     0
100
AcDbLine
 10
455.8074615788104
 20
397.2989544717772
 30
0.0
 11
732.1629408994908
 21
397.2989544717772
 31
0.0
  0
SPLINE
  5
FA1
330
1F
100
AcDbEntity
  8
00DIM
 62
     0
100
AcDbSpline
210
0.0
220
0.0
230
1.0
 70
  1064
 71
     3
 72
    11
 73
     7
 74
     5
 42
0.000000001
 43
0.0000000001
 44
0.0000000001
 40
0.0
 40
0.0
 40
0.0
 40
0.0
 40
9.902352947968957
 40
20.27360736564009
 40
28.92599892563043
 40
41.06537620658784
 40
41.06537620658784
 40
41.06537620658784
 40
41.06537620658784
 10
448.072711251771
 20
432.6293614533994
 30
0.0
 10
449.4106179713166
 20
429.530590863462
 30
0.0
 10
452.149784679112
 20
423.186315054805
 30
0.0
 10
450.1741379176173
 20
413.3502936237486
 30
0.0
 10
444.8180760432134
 20
403.8228200295683
 30
0.0
 10
447.8294628099492
 20
397.0259008754671
 30
0.0
 10
449.5876758980197
 20
393.0574859420873
 30
0.0
 11
448.072711251771
 21
432.6293614533994
 31
0.0
 11
451.1026058355804
 21
423.2019369526594
 31
0.0
 11
449.4711241366098
 21
412.9598089676171
 31
0.0
 11
446.5577466055314
 21
404.8126554113866
 31
0.0
 11
449.5876758980197
 21
393.0574859420873
 31
0.0
  0
SPLINE
  5
FA2
330
1F
100
AcDbEntity
  8
00DIM
 62
     0
100
AcDbSpline
210
0.0
220
0.0
230
1.0
 70
  1064
 71
     3
 72
    11
 73
     7
 74
     5
 42
0.000000001
 43
0.0000000001
 44
0.0000000001
 40
0.0
 40
0.0
 40
0.0
 40
0.0
 40
9.902352947966174
 40
20.27360736563731
 40
28.92599892562765
 40
41.06537620658506
 40
41.06537620658506
 40
41.06537620658506
 40
41.06537620658506
 10
456.0727112517801
 20
432.6293614533994
 30
0.0
 10
457.4106179713217
 20
429.5305908634618
 30
0.0
 10
460.1497846791097
 20
423.1863150548034
 30
0.0
 10
458.1741379176178
 20
413.3502936237488
 30
0.0
 10
452.8180760432131
 20
403.8228200295681
 30
0.0
 10
455.8294628099492
 20
397.0259008754671
 30
0.0
 10
457.5876758980197
 20
393.0574859420873
 30
0.0
 11
456.0727112517801
 21
432.6293614533994
 31
0.0
 11
459.1026058355804
 21
423.2019369526594
 31
0.0
 11
457.4711241366098
 21
412.9598089676171
 31
0.0
 11
454.5577466055314
 21
404.8126554113866
 31
0.0
 11
457.5876758980197
 21
393.0574859420873
 31
0.0
  0
SPLINE
  5
FA3
330
1F
100
AcDbEntity
  8
00DIM
 62
     0
100
AcDbSpline
210
0.0
220
0.0
230
1.0
 70
  1064
 71
     3
 72
    11
 73
     7
 74
     5
 42
0.000000001
 43
0.0000000001
 44
0.0000000001
 40
0.0
 40
0.0
 40
0.0
 40
0.0
 40
9.902352947979457
 40
20.27360736565059
 40
28.9259989256374
 40
41.06537620659844
 40
41.06537620659844
 40
41.06537620659844
 40
41.06537620659844
 10
448.072711251771
 20
322.9799397645899
 30
0.0
 10
449.4106179713167
 20
319.8811691746489
 30
0.0
 10
452.1497846791112
 20
313.536893365988
 30
0.0
 10
450.1741379176182
 20
303.7008719349291
 30
0.0
 10
444.8180760432126
 20
294.1733983407494
 30
0.0
 10
447.8294628099487
 20
287.3764791866481
 30
0.0
 10
449.5876758980197
 20
283.4080642532668
 30
0.0
 11
448.072711251771
 21
322.9799397645899
 31
0.0
 11
451.1026058355804
 21
313.5525152638389
 31
0.0
 11
449.4711241366098
 21
303.3103872787966
 31
0.0
 11
446.5577466055314
 21
295.1632337225698
 31
0.0
 11
449.5876758980197
 21
283.4080642532668
 31
0.0
  0
SPLINE
  5
FA4
330
1F
100
AcDbEntity
  8
00DIM
 62
     0
100
AcDbSpline
210
0.0
220
0.0
230
1.0
 70
  1064
 71
     3
 72
    11
 73
     7
 74
     5
 42
0.000000001
 43
0.0000000001
 44
0.0000000001
 40
0.0
 40
0.0
 40
0.0
 40
0.0
 40
9.902352947976674
 40
20.27360736564781
 40
28.92599892563462
 40
41.06537620659566
 40
41.06537620659566
 40
41.06537620659566
 40
41.06537620659566
 10
456.0727112517801
 20
322.9799397645899
 30
0.0
 10
457.4106179713219
 20
319.8811691746486
 30
0.0
 10
460.1497846791088
 20
313.5368933659862
 30
0.0
 10
458.1741379176187
 20
303.7008719349293
 30
0.0
 10
452.8180760432126
 20
294.1733983407494
 30
0.0
 10
455.8294628099486
 20
287.376479186648
 30
0.0
 10
457.5876758980197
 20
283.4080642532668
 30
0.0
 11
456.0727112517801
 21
322.9799397645899
 31
0.0
 11
459.1026058355804
 21
313.5525152638389
 31
0.0
 11
457.4711241366098
 21
303.3103872787966
 31
0.0
 11
454.5577466055314
 21
295.1632337225698
 31
0.0
 11
457.5876758980197
 21
283.4080642532668
 31
0.0
  0
LINE
  5
FA5
330
1F
100
AcDbEntity
  8
05_口金
 62
     0
100
AcDbLine
 10
174.1629408994908
 20
286.5257572781289
 30
0.0
 11
174.1629408994908
 21
319.6257572781275
 31
0.0
  0
LINE
  5
FA6
330
1F
100
AcDbEntity
  8
05_口金
 62
     0
100
AcDbLine
 10
161.1629408994908
 20
319.6257572781275
 30
0.0
 11
174.1629408994908
 21
319.6257572781275
 31
0.0
  0
LINE
  5
FA7
330
1F
100
AcDbEntity
  8
05_口金
 62
     0
100
AcDbLine
 10
161.1629408994908
 20
286.5257572781289
 30
0.0
 11
174.1629408994908
 21
286.5257572781289
 31
0.0
  0
LINE
  5
FA8
330
1F
100
AcDbEntity
  8
05_口金
 62
     0
100
AcDbLine
 10
161.1629408994908
 20
286.5257572781289
 30
0.0
 11
161.1629408994908
 21
319.6257572781275
 31
0.0
  0
LINE
  5
FA9
330
1F
100
AcDbEntity
  8
05_口金
 62
     0
100
AcDbLine
 10
153.1629408994908
 20
287.5757572781282
 30
0.0
 11
153.1629408994908
 21
318.5757572781282
 31
0.0
  0
LINE
  5
FAA
330
1F
100
AcDbEntity
  8
05_口金
 62
     0
100
AcDbLine
 10
153.1629408994908
 20
318.5757572781282
 30
0.0
 11
161.1629408994908
 21
318.5757572781282
 31
0.0
  0
LINE
  5
FAB
330
1F
100
AcDbEntity
  8
05_口金
 62
     0
100
AcDbLine
 10
153.1629408994908
 20
287.5757572781282
 30
0.0
 11
161.1629408994908
 21
287.5757572781282
 31
0.0
  0
LINE
  5
FAC
330
1F
100
AcDbEntity
  8
05_口金
 62
     0
100
AcDbLine
 10
161.1629408994908
 20
286.5257572781289
 30
0.0
 11
161.1629408994908
 21
319.6257572781275
 31
0.0
  0
LINE
  5
FAD
330
1F
100
AcDbEntity
  8
05_口金
 62
     0
100
AcDbLine
 10
145.1629408994908
 20
298.7757572781289
 30
0.0
 11
145.1629408994908
 21
301.9257572781268
 31
0.0
  0
LINE
  5
FAE
330
1F
100
AcDbEntity
  8
05_口金
 62
     0
100
AcDbLine
 10
145.1629408994908
 20
304.2257572781297
 30
0.0
 11
145.1629408994908
 21
307.3757572781275
 31
0.0
  0
LINE
  5
FAF
330
1F
100
AcDbEntity
  8
05_口金
 62
     0
100
AcDbLine
 10
145.1629408994908
 20
307.3757572781275
 30
0.0
 11
153.1629408994908
 21
307.3757572781275
 31
0.0
  0
LINE
  5
FB0
330
1F
100
AcDbEntity
  8
05_口金
 62
     0
100
AcDbLine
 10
145.1629408994908
 20
298.7757572781289
 30
0.0
 11
153.1629408994908
 21
298.7757572781289
 31
0.0
  0
LINE
  5
FB1
330
1F
100
AcDbEntity
  8
05_口金
 62
     0
100
AcDbLine
 10
146.6629408994908
 20
301.9257572781268
 30
0.0
 11
146.6629408994908
 21
304.2257572781297
 31
0.0
  0
LINE
  5
FB2
330
1F
100
AcDbEntity
  8
05_口金
 62
     0
100
AcDbLine
 10
145.1629408994908
 20
304.2257572781297
 30
0.0
 11
146.6629408994908
 21
304.2257572781297
 31
0.0
  0
LINE
  5
FB3
330
1F
100
AcDbEntity
  8
05_口金
 62
     0
100
AcDbLine
 10
145.1629408994908
 20
301.9257572781268
 30
0.0
 11
146.6629408994908
 21
301.9257572781268
 31
0.0
  0
LINE
  5
FB4
330
1F
100
AcDbEntity
  8
05_口金
 62
     0
100
AcDbLine
 10
153.1629408994908
 20
303.1569741777881
 30
0.0
 11
155.7629408994911
 21
303.1569741777881
 31
0.0
  0
LINE
  5
FB5
330
1F
100
AcDbEntity
  8
05_口金
 62
     0
100
AcDbLine
 10
153.1629408994908
 20
298.0733718724065
 30
0.0
 11
155.7629408994911
 21
298.0733718724065
 31
0.0
  0
LINE
  5
FB6
330
1F
100
AcDbEntity
  8
05_口金
 62
     0
100
AcDbLine
 10
155.7629408994911
 20
298.0733718724065
 30
0.0
 11
155.7629408994911
 21
303.1569741777881
 31
0.0
  0
LINE
  5
FB7
330
1F
100
AcDbEntity
  8
05_口金
 62
     0
100
AcDbLine
 10
174.1629408994908
 20
396.1751789669494
 30
0.0
 11
174.1629408994908
 21
429.2751789669479
 31
0.0
  0
LINE
  5
FB8
330
1F
100
AcDbEntity
  8
05_口金
 62
     0
100
AcDbLine
 10
161.1629408994908
 20
429.2751789669479
 30
0.0
 11
174.1629408994908
 21
429.2751789669479
 31
0.0
  0
LINE
  5
FB9
330
1F
100
AcDbEntity
  8
05_口金
 62
     0
100
AcDbLine
 10
161.1629408994908
 20
396.1751789669494
 30
0.0
 11
174.1629408994908
 21
396.1751789669494
 31
0.0
  0
LINE
  5
FBA
330
1F
100
AcDbEntity
  8
05_口金
 62
     0
100
AcDbLine
 10
161.1629408994908
 20
396.1751789669494
 30
0.0
 11
161.1629408994908
 21
429.2751789669479
 31
0.0
  0
LINE
  5
FBB
330
1F
100
AcDbEntity
  8
05_口金
 62
     0
100
AcDbLine
 10
153.1629408994908
 20
397.2251789669486
 30
0.0
 11
153.1629408994908
 21
428.2251789669486
 31
0.0
  0
LINE
  5
FBC
330
1F
100
AcDbEntity
  8
05_口金
 62
     0
100
AcDbLine
 10
153.1629408994908
 20
428.2251789669486
 30
0.0
 11
161.1629408994908
 21
428.2251789669486
 31
0.0
  0
LINE
  5
FBD
330
1F
100
AcDbEntity
  8
05_口金
 62
     0
100
AcDbLine
 10
153.1629408994908
 20
397.2251789669486
 30
0.0
 11
161.1629408994908
 21
397.2251789669486
 31
0.0
  0
LINE
  5
FBE
330
1F
100
AcDbEntity
  8
05_口金
 62
     0
100
AcDbLine
 10
161.1629408994908
 20
396.1751789669494
 30
0.0
 11
161.1629408994908
 21
429.2751789669479
 31
0.0
  0
LINE
  5
FBF
330
1F
100
AcDbEntity
  8
05_口金
 62
     0
100
AcDbLine
 10
145.1629408994908
 20
404.5501789669494
 30
0.0
 11
145.1629408994908
 21
420.9001789669479
 31
0.0
  0
LINE
  5
FC0
330
1F
100
AcDbEntity
  8
05_口金
 62
     0
100
AcDbLine
 10
145.1629408994908
 20
420.9001789669479
 30
0.0
 11
153.1629408994908
 21
420.9001789669479
 31
0.0
  0
LINE
  5
FC1
330
1F
100
AcDbEntity
  8
05_口金
 62
     0
100
AcDbLine
 10
145.1629408994908
 20
404.5501789669494
 30
0.0
 11
153.1629408994908
 21
404.5501789669494
 31
0.0
  0
LINE
  5
FC2
330
1F
100
AcDbEntity
  8
05_口金
 62
     0
100
AcDbLine
 10
732.1629408994908
 20
286.5257572781289
 30
0.0
 11
732.1629408994908
 21
319.6257572781275
 31
0.0
  0
LINE
  5
FC3
330
1F
100
AcDbEntity
  8
05_口金
 62
     0
100
AcDbLine
 10
745.1629408994908
 20
319.6257572781275
 30
0.0
 11
732.1629408994908
 21
319.6257572781275
 31
0.0
  0
LINE
  5
FC4
330
1F
100
AcDbEntity
  8
05_口金
 62
     0
100
AcDbLine
 10
745.1629408994908
 20
286.5257572781289
 30
0.0
 11
732.1629408994908
 21
286.5257572781289
 31
0.0
  0
LINE
  5
FC5
330
1F
100
AcDbEntity
  8
05_口金
 62
     0
100
AcDbLine
 10
745.1629408994908
 20
286.5257572781289
 30
0.0
 11
745.1629408994908
 21
319.6257572781275
 31
0.0
  0
LINE
  5
FC6
330
1F
100
AcDbEntity
  8
05_口金
 62
     0
100
AcDbLine
 10
753.1629408994908
 20
287.5757572781282
 30
0.0
 11
753.1629408994908
 21
318.5757572781282
 31
0.0
  0
LINE
  5
FC7
330
1F
100
AcDbEntity
  8
05_口金
 62
     0
100
AcDbLine
 10
753.1629408994908
 20
318.5757572781282
 30
0.0
 11
745.1629408994908
 21
318.5757572781282
 31
0.0
  0
LINE
  5
FC8
330
1F
100
AcDbEntity
  8
05_口金
 62
     0
100
AcDbLine
 10
753.1629408994908
 20
287.5757572781282
 30
0.0
 11
745.1629408994908
 21
287.5757572781282
 31
0.0
  0
LINE
  5
FC9
330
1F
100
AcDbEntity
  8
05_口金
 62
     0
100
AcDbLine
 10
745.1629408994908
 20
286.5257572781289
 30
0.0
 11
745.1629408994908
 21
319.6257572781275
 31
0.0
  0
LINE
  5
FCA
330
1F
100
AcDbEntity
  8
05_口金
 62
     0
100
AcDbLine
 10
761.1629408994908
 20
298.7757572781289
 30
0.0
 11
761.1629408994908
 21
301.9257572781268
 31
0.0
  0
LINE
  5
FCB
330
1F
100
AcDbEntity
  8
05_口金
 62
     0
100
AcDbLine
 10
761.1629408994908
 20
304.2257572781297
 30
0.0
 11
761.1629408994908
 21
307.3757572781275
 31
0.0
  0
LINE
  5
FCC
330
1F
100
AcDbEntity
  8
05_口金
 62
     0
100
AcDbLine
 10
761.1629408994908
 20
307.3757572781275
 30
0.0
 11
753.1629408994908
 21
307.3757572781275
 31
0.0
  0
LINE
  5
FCD
330
1F
100
AcDbEntity
  8
05_口金
 62
     0
100
AcDbLine
 10
761.1629408994908
 20
298.7757572781289
 30
0.0
 11
753.1629408994908
 21
298.7757572781289
 31
0.0
  0
LINE
  5
FCE
330
1F
100
AcDbEntity
  8
05_口金
 62
     0
100
AcDbLine
 10
759.6629408994908
 20
301.9257572781268
 30
0.0
 11
759.6629408994908
 21
304.2257572781297
 31
0.0
  0
LINE
  5
FCF
330
1F
100
AcDbEntity
  8
05_口金
 62
     0
100
AcDbLine
 10
761.1629408994908
 20
304.2257572781297
 30
0.0
 11
759.6629408994908
 21
304.2257572781297
 31
0.0
  0
LINE
  5
FD0
330
1F
100
AcDbEntity
  8
05_口金
 62
     0
100
AcDbLine
 10
761.1629408994908
 20
301.9257572781268
 30
0.0
 11
759.6629408994908
 21
301.9257572781268
 31
0.0
  0
LINE
  5
FD1
330
1F
100
AcDbEntity
  8
05_口金
 62
     0
100
AcDbLine
 10
753.1629408994908
 20
303.1569741777881
 30
0.0
 11
750.5629408994904
 21
303.1569741777881
 31
0.0
  0
LINE
  5
FD2
330
1F
100
AcDbEntity
  8
05_口金
 62
     0
100
AcDbLine
 10
753.1629408994908
 20
298.0733718724065
 30
0.0
 11
750.5629408994904
 21
298.0733718724065
 31
0.0
  0
LINE
  5
FD3
330
1F
100
AcDbEntity
  8
05_口金
 62
     0
100
AcDbLine
 10
750.5629408994904
 20
298.0733718724065
 30
0.0
 11
750.5629408994904
 21
303.1569741777881
 31
0.0
  0
LINE
  5
FD4
330
1F
100
AcDbEntity
  8
05_口金
 62
     0
100
AcDbLine
 10
732.1629413994909
 20
396.1751789669494
 30
0.0
 11
732.1629413994909
 21
429.2751789669479
 31
0.0
  0
LINE
  5
FD5
330
1F
100
AcDbEntity
  8
05_口金
 62
     0
100
AcDbLine
 10
744.6209705965713
 20
429.2751789669479
 30
0.0
 11
731.6209705965713
 21
429.2751789669479
 31
0.0
  0
LINE
  5
FD6
330
1F
100
AcDbEntity
  8
05_口金
 62
     0
100
AcDbLine
 10
745.1629413994909
 20
396.1751789669494
 30
0.0
 11
732.1629413994909
 21
396.1751789669494
 31
0.0
  0
LINE
  5
FD7
330
1F
100
AcDbEntity
  8
05_口金
 62
     0
100
AcDbLine
 10
745.1629413994909
 20
396.1751789669494
 30
0.0
 11
745.1629413994909
 21
429.2751789669479
 31
0.0
  0
LINE
  5
FD8
330
1F
100
AcDbEntity
  8
05_口金
 62
     0
100
AcDbLine
 10
753.1629413994909
 20
397.2251789669486
 30
0.0
 11
753.1629413994909
 21
428.2251789669486
 31
0.0
  0
LINE
  5
FD9
330
1F
100
AcDbEntity
  8
05_口金
 62
     0
100
AcDbLine
 10
753.1629413994909
 20
428.2251789669486
 30
0.0
 11
745.1629413994909
 21
428.2251789669486
 31
0.0
  0
LINE
  5
FDA
330
1F
100
AcDbEntity
  8
05_口金
 62
     0
100
AcDbLine
 10
753.1629413994909
 20
397.2251789669486
 30
0.0
 11
745.1629413994909
 21
397.2251789669486
 31
0.0
  0
LINE
  5
FDB
330
1F
100
AcDbEntity
  8
05_口金
 62
     0
100
AcDbLine
 10
745.1629413994909
 20
396.1751789669494
 30
0.0
 11
745.1629413994909
 21
429.2751789669479
 31
0.0
  0
LINE
  5
FDC
330
1F
100
AcDbEntity
  8
05_口金
 62
     0
100
AcDbLine
 10
761.1629413994909
 20
404.5501789669494
 30
0.0
 11
761.1629413994909
 21
420.9001789669479
 31
0.0
  0
LINE
  5
FDD
330
1F
100
AcDbEntity
  8
05_口金
 62
     0
100
AcDbLine
 10
761.1629413994909
 20
420.9001789669479
 30
0.0
 11
753.1629413994909
 21
420.9001789669479
 31
0.0
  0
LINE
  5
FDE
330
1F
100
AcDbEntity
  8
05_口金
 62
     0
100
AcDbLine
 10
761.1629413994909
 20
404.5501789669494
 30
0.0
 11
753.1629413994909
 21
404.5501789669494
 31
0.0
  0
DIMENSION
  5
FDF
330
1F
100
AcDbEntity
  8
20_DIM
 62
     0
100
AcDbDimension
  2
*D83
 10
69.11689628480087
 20
251.1755248726173
 30
0.0
 11
65.61689628480087
 21
256.1755248726173
 31
0.0
 70
    32
  3
STANDARD
100
AcDbAlignedDimension
 13
62.11689628480087
 23
300.3257572781282
 33
0.0
 14
69.11689628480087
 24
300.3257572781282
 34
0.0
100
AcDbRotatedDimension
1001
ACAD
1000
DSTYLE
1002
{
1070
    41
1040
8.0
1070
    42
1040
1.0
1070
    44
1040
1.0
1070
   140
1040
8.0
1070
   147
1040
1.0
1070
   271
1070
     2
1002
}
  0
LINE
  5
FE0
330
1F
100
AcDbEntity
  8
03_アルミカバー
 62
     0
100
AcDbLine
 10
174.1629408994908
 20
301.3903315288395
 30
0.0
 11
448.64977878764
 21
301.3903315288395
 31
0.0
  0
LINE
  5
FE1
330
1F
100
AcDbEntity
  8
03_アルミカバー
 62
     0
100
AcDbLine
 10
174.1629408994908
 20
298.777025382237
 30
0.0
 11
447.5450007194198
 21
298.777025382237
 31
0.0
  0
LINE
  5
FE2
330
1F
100
AcDbEntity
  8
03_アルミカバー
 62
     0
100
AcDbLine
 10
174.1629408994908
 20
296.2958531210485
 30
0.0
 11
446.7530376185008
 21
296.2958531210485
 31
0.0
  0
LINE
  5
FE3
330
1F
100
AcDbEntity
  8
03_アルミカバー
 62
     0
100
AcDbLine
 10
174.1629408994908
 20
294.0222044042881
 30
0.0
 11
446.4763290015911
 21
294.0222044042881
 31
0.0
  0
LINE
  5
FE4
330
1F
100
AcDbEntity
  8
03_アルミカバー
 62
     0
100
AcDbLine
 10
174.1629408994908
 20
292.0251625253283
 30
0.0
 11
446.6200169291609
 21
292.0251625253283
 31
0.0
  0
LINE
  5
FE5
330
1F
100
AcDbEntity
  8
03_アルミカバー
 62
     0
100
AcDbLine
 10
174.1629408994908
 20
288.1335952788492
 30
0.0
 11
447.6488903005014
 21
288.1335952788492
 31
0.0
  0
LINE
  5
FE6
330
1F
100
AcDbEntity
  8
03_アルミカバー
 62
     0
100
AcDbLine
 10
174.1629408994908
 20
287.6257572781275
 30
0.0
 11
447.8350568867412
 21
287.6257572781275
 31
0.0
  0
LINE
  5
FE7
330
1F
100
AcDbEntity
  8
03_アルミカバー
 62
     0
100
AcDbLine
 10
174.1629408994908
 20
289.0311402781286
 30
0.0
 11
447.3438327949101
 21
289.0311402781286
 31
0.0
  0
LINE
  5
FE8
330
1F
100
AcDbEntity
  8
03_アルミカバー
 62
     0
100
AcDbLine
 10
174.1629408994908
 20
290.3384767781268
 30
0.0
 11
446.9651645344715
 21
290.3384767781268
 31
0.0
  0
LINE
  5
FE9
330
1F
100
AcDbEntity
  8
03_アルミカバー
 62
     0
100
AcDbLine
 10
456.64977878764
 20
301.3903315288395
 30
0.0
 11
732.1629408994908
 21
301.3903315288395
 31
0.0
  0
LINE
  5
FEA
330
1F
100
AcDbEntity
  8
03_アルミカバー
 62
     0
100
AcDbLine
 10
455.5450007194198
 20
298.777025382237
 30
0.0
 11
732.1629408994908
 21
298.777025382237
 31
0.0
  0
LINE
  5
FEB
330
1F
100
AcDbEntity
  8
03_アルミカバー
 62
     0
100
AcDbLine
 10
454.7530376185008
 20
296.2958531210485
 30
0.0
 11
732.1629408994908
 21
296.2958531210485
 31
0.0
  0
LINE
  5
FEC
330
1F
100
AcDbEntity
  8
03_アルミカバー
 62
     0
100
AcDbLine
 10
454.4763290015911
 20
294.0222044042881
 30
0.0
 11
732.1629408994908
 21
294.0222044042881
 31
0.0
  0
LINE
  5
FED
330
1F
100
AcDbEntity
  8
03_アルミカバー
 62
     0
100
AcDbLine
 10
454.62001692917
 20
292.0251625253283
 30
0.0
 11
732.1629408994908
 21
292.0251625253283
 31
0.0
  0
LINE
  5
FEE
330
1F
100
AcDbEntity
  8
03_アルミカバー
 62
     0
100
AcDbLine
 10
455.6488903005014
 20
288.1335952788492
 30
0.0
 11
732.1629408994908
 21
288.1335952788492
 31
0.0
  0
LINE
  5
FEF
330
1F
100
AcDbEntity
  8
03_アルミカバー
 62
     0
100
AcDbLine
 10
455.8350568867412
 20
287.6257572781275
 30
0.0
 11
732.1629408994908
 21
287.6257572781275
 31
0.0
  0
LINE
  5
FF0
330
1F
100
AcDbEntity
  8
03_アルミカバー
 62
     0
100
AcDbLine
 10
455.3438327949101
 20
289.0311402781286
 30
0.0
 11
732.1629408994908
 21
289.0311402781286
 31
0.0
  0
LINE
  5
FF1
330
1F
100
AcDbEntity
  8
03_アルミカバー
 62
     0
100
AcDbLine
 10
454.9651645344715
 20
290.3384767781268
 30
0.0
 11
732.1629408994908
 21
290.3384767781268
 31
0.0
  0
MTEXT
  5
FF2
330
1F
100
AcDbEntity
  8
20_DIM
 62
     0
100
AcDbMText
 10
479.4188856945406
 20
382.4117181983298
 30
0.0
 40
8.0
 41
0.0
 71
     7
 72
     1
  1
発光面視
  0
LWPOLYLINE
  5
FF3
330
1F
100
AcDbEntity
  8
20_DIM
 62
     0
100
AcDbPolyline
 90
        4
 70
     1
 43
0.0
 10
475.3414938910613
 20
393.5262689172765
 10
520.4000521306101
 20
393.5262689172765
 10
520.4000521306101
 20
378.3615589424868
 10
475.3414938910613
 20
378.3615589424868
  0
DIMENSION
  5
FF4
330
1F
100
AcDbEntity
  8
20_DIM
 62
     0
100
AcDbDimension
  2
*D84
 10
753.1629408994908
 20
229.096318047758
 30
0.0
 11
453.1629408994908
 21
229.096318047758
 31
0.0
 70
   160
  1
2367±1.5
  3
STANDARD
100
AcDbAlignedDimension
 13
153.1629408994908
 23
287.5757572781282
 33
0.0
 14
753.1629408994908
 24
287.5757572781282
 34
0.0
100
AcDbRotatedDimension
1001
ACAD
1000
DSTYLE
1002
{
1070
   146
1040
0.5
1070
    47
1040
1.5
1070
    48
1040
1.5000000015
1070
    72
1070
     0
1070
    71
1070
     0
1070
    41
1040
8.0
1070
    42
1040
3.0
1070
    44
1040
1.0
1070
   140
1040
8.0
1070
   147
1040
1.0
1070
   271
1070
     2
1002
}
  0
DIMENSION
  5
FF5
330
1F
100
AcDbEntity
  8
20_DIM
 62
     0
100
AcDbDimension
  2
*D85
 10
543.6078082444404
 20
287.6257572781275
 30
0.0
 11
543.6078082444404
 21
352.9971858495579
 31
0.0
 70
   160
  3
STANDARD
100
AcDbAlignedDimension
 13
174.1629408994908
 23
318.6257572781275
 33
0.0
 14
174.1629408994908
 24
287.6257572781275
 34
0.0
 50
90.0
100
AcDbRotatedDimension
1001
ACAD
1000
DSTYLE
1002
{
1070
    47
1040
0.5
1070
    48
1040
0.5
1070
    72
1070
     0
1070
    71
1070
     1
1070
     3
1000
φ<>
1070
    76
1070
     1
1070
    75
1070
     1
1070
    41
1040
8.0
1070
    42
1040
1.0
1070
    44
1040
1.0
1070
   140
1040
8.0
1070
   147
1040
1.0
1070
   271
1070
     2
1002
}
  0
DIMENSION
  5
FF6
330
1F
100
AcDbEntity
  8
20_DIM
 62
     0
100
AcDbDimension
  2
*D86
 10
134.7745237925013
 20
286.5257572781289
 30
0.0
 11
134.7745237925013
 21
359.7114715638478
 31
0.0
 70
   160
  3
STANDARD
100
AcDbAlignedDimension
 13
161.1629408994908
 23
319.6257572781275
 33
0.0
 14
161.1629408994908
 24
286.5257572781289
 34
0.0
 50
90.0
100
AcDbRotatedDimension
1001
ACAD
1000
DSTYLE
1002
{
1070
    47
1040
0.3
1070
    48
1040
0.3
1070
    72
1070
     0
1070
    71
1070
     1
1070
     3
1000
φ<>
1070
    41
1040
8.0
1070
    42
1040
3.0
1070
    44
1040
1.0
1070
   140
1040
8.0
1070
   147
1040
1.0
1070
   271
1070
     2
1002
}
  0
DIMENSION
  5
FF7
330
1F
100
AcDbEntity
  8
20_DIM
 62
     0
100
AcDbDimension
  2
*D87
 10
174.1629408994908
 20
244.096318047758
 30
0.0
 11
203.96294089949
 21
244.096318047758
 31
0.0
 70
   160
  3
STANDARD
100
AcDbAlignedDimension
 13
153.1629408994908
 23
287.5757572781282
 33
0.0
 14
174.1629408994908
 24
286.5257572781289
 34
0.0
100
AcDbRotatedDimension
1001
ACAD
1000
DSTYLE
1002
{
1070
    47
1040
0.3
1070
    48
1040
0.3
1070
    72
1070
     0
1070
    71
1070
     1
1070
    41
1040
8.0
1070
    42
1040
3.0
1070
    44
1040
1.0
1070
   140
1040
8.0
1070
   147
1040
1.0
1070
   271
1070
     2
1002
}
  0
DIMENSION
  5
FF8
330
1F
100
AcDbEntity
  8
20_DIM
 62
     0
100
AcDbDimension
  2
*D88
 10
153.1629408994908
 20
244.096318047758
 30
0.0
 11
125.4962742328211
 21
244.096318047758
 31
0.0
 70
   160
  3
STANDARD
100
AcDbAlignedDimension
 13
145.1629408994908
 23
298.7757572781289
 33
0.0
 14
153.1629408994908
 24
287.5757572781282
 34
0.0
100
AcDbRotatedDimension
1001
ACAD
1000
DSTYLE
1002
{
1070
    41
1040
8.0
1070
    42
1040
3.0
1070
    44
1040
1.0
1070
   140
1040
8.0
1070
   147
1040
1.0
1070
   271
1070
     2
1002
}
  0
MTEXT
  5
FF9
102
{ACAD_REACTORS
330
FFA
102
}
330
1F
100
AcDbEntity
  8
20_DIM
 62
     0
100
AcDbMText
 10
330.4602321884398
 20
334.4790345777679
 30
0.0
 40
8.0
 41
0.0
 71
     7
 72
     1
  1
拡散カバー
  0
LEADER
  5
FFA
330
1F
100
AcDbEntity
  8
20_DIM
 62
     0
100
AcDbLeader
  3
STANDARD
 73
     0
 74
     0
 75
     1
 40
10.544
 41
49.52000000000001
 76
     3
 10
295.431516907271
 20
311.0572176754673
 30
0.0
 10
321.4602321884398
 20
333.4790345777679
 30
0.0
 10
329.4602321884398
 20
333.4790345777679
 30
0.0
340
FF9
1001
ACAD
1000
DSTYLE
1002
{
1070
     5
1000
DOTSMALL
1070
   341
1005
81B
1070
    41
1040
8.0
1070
    42
1040
1.0
1070
    44
1040
1.0
1070
   140
1040
8.0
1070
   147
1040
1.0
1070
   271
1070
     2
1002
}
  0
MTEXT
  5
FFB
102
{ACAD_REACTORS
330
FFC
102
}
330
1F
100
AcDbEntity
  8
20_DIM
 62
     0
100
AcDbMText
 10
330.4602321884398
 20
263.1933596077384
 30
0.0
 40
8.0
 41
0.0
 71
     7
 72
     1
  1
アルミカバー
  0
LEADER
  5
FFC
330
1F
100
AcDbEntity
  8
20_DIM
 62
     0
100
AcDbLeader
  3
STANDARD
 73
     0
 74
     0
 75
     1
 40
10.128
 41
51.42400000000001
 76
     3
 10
295.431516907271
 20
293.7744054088895
 30
0.0
 10
321.4602321884398
 20
262.1933596077384
 30
0.0
 10
329.4602321884398
 20
262.1933596077384
 30
0.0
340
FFB
1001
ACAD
1000
DSTYLE
1002
{
1070
     5
1000
DOTSMALL
1070
   341
1005
81B
1070
    41
1040
8.0
1070
    42
1040
1.0
1070
    44
1040
1.0
1070
   140
1040
8.0
1070
   147
1040
1.0
1070
   271
1070
     2
1002
}
  0
MTEXT
  5
FFD
102
{ACAD_REACTORS
330
FFE
102
}
330
1F
100
AcDbEntity
  8
20_DIM
 62
     0
100
AcDbMText
 10
175.1338758744899
 20
358.8232272887095
 30
0.0
 40
8.0
 41
0.0
 71
     7
 72
     1
  1
Ｒ１７ｄ口金
  0
LEADER
  5
FFE
330
1F
100
AcDbEntity
  8
20_DIM
 62
     0
100
AcDbLeader
  3
STANDARD
 73
     0
 74
     0
 75
     1
 40
9.992
 41
53.392
 76
     3
 10
166.8157413008306
 20
309.4671693685474
 30
0.0
 10
166.1338758744899
 20
357.8232272887095
 30
0.0
 10
174.1338758744899
 20
357.8232272887095
 30
0.0
340
FFD
1001
ACAD
1000
DSTYLE
1002
{
1070
     5
1000
DOTSMALL
1070
   341
1005
81B
1070
    41
1040
8.0
1070
    42
1040
1.0
1070
    44
1040
1.0
1070
   140
1040
8.0
1070
   147
1040
1.0
1070
   271
1070
     2
1002
}
  0
MTEXT
  5
FFF
102
{ACAD_REACTORS
330
1000
102
}
330
1F
100
AcDbEntity
  8
20_DIM
 62
     0
100
AcDbMText
 10
743.2975474643619
 20
436.4462702714178
 30
0.0
 40
8.0
 41
0.0
 71
     9
 72
     1
  1
給電ピン側
  0
LEADER
  5
1000
330
1F
100
AcDbEntity
  8
20_DIM
 62
     0
100
AcDbLeader
  3
STANDARD
 73
     0
 75
     1
 40
10.768
 41
50.93599999999999
 76
     3
 10
757.1629413994909
 20
419.9001789669479
 30
0.0
 10
752.2975474643619
 20
435.4462702714178
 30
0.0
 10
744.2975474643619
 20
435.4462702714178
 30
0.0
340
FFF
1001
ACAD
1000
DSTYLE
1002
{
1070
     5
1000
DOTSMALL
1070
   341
1005
81B
1070
    41
1040
8.0
1070
    42
1040
1.0
1070
    44
1040
1.0
1070
   140
1040
8.0
1070
   147
1040
1.0
1070
   271
1070
     2
1002
}
  0
MTEXT
  5
1001
330
1F
100
AcDbEntity
  8
20_DIM
 62
     0
100
AcDbMText
 10
170.5617113368502
 20
196.4863543060989
 30
0.0
 40
8.0
 41
0.0
 71
     7
 72
     1
  1
・寸法は周囲温度２５℃環境下の寸法とする。\P・口金の寸法は　「ＪＩＳ　Ｃ７７０９－１」　に基づきます。
  0
CIRCLE
  5
1002
330
1F
100
AcDbEntity
  8
05_口金
 62
     0
100
AcDbCircle
 10
65.61689628480997
 20
412.7251789669486
 30
0.0
 40
16.55
  0
ARC
  5
1003
330
1F
100
AcDbEntity
  8
05_口金
 62
     0
100
AcDbCircle
 10
65.61689628480997
 20
412.7251789669486
 30
0.0
 40
15.5
100
AcDbArc
 50
273.2419046736003
 51
86.7580953263996
  0
ARC
  5
1004
330
1F
100
AcDbEntity
  8
05_口金
 62
     0
100
AcDbCircle
 10
65.61689628480997
 20
412.7251789669486
 30
0.0
 40
15.5
100
AcDbArc
 50
110.9308760222779
 51
249.0691239777221
  0
ARC
  5
1005
330
1F
100
AcDbEntity
  8
05_口金
 62
     0
100
AcDbCircle
 10
66.4368962848115
 20
398.2483837414899
 30
0.0
 40
1.0
100
AcDbArc
 50
180.0
 51
273.2419046735977
  0
ARC
  5
1006
330
1F
100
AcDbEntity
  8
05_口金
 62
     0
100
AcDbCircle
 10
60.4368962848115
 20
399.1820035638181
 30
0.0
 40
1.0
100
AcDbArc
 50
249.0691239777232
 51
0.0
  0
LINE
  5
1007
330
1F
100
AcDbEntity
  8
05_口金
 62
     0
100
AcDbLine
 10
69.91689628481106
 20
416.6001789669486
 30
0.0
 11
69.91689628481106
 21
408.8501789669486
 31
0.0
  0
LINE
  5
1008
330
1F
100
AcDbEntity
  8
05_口金
 62
     0
100
AcDbLine
 10
61.31689628479978
 20
416.6001789669486
 30
0.0
 11
61.31689628479978
 21
408.8501789669486
 31
0.0
  0
LINE
  5
1009
330
1F
100
AcDbEntity
  8
05_口金
 62
     0
100
AcDbLine
 10
62.86689628480087
 20
416.2251789669486
 30
0.0
 11
68.36689628480087
 21
416.2251789669486
 31
0.0
  0
LINE
  5
100A
330
1F
100
AcDbEntity
  8
05_口金
 62
     0
100
AcDbLine
 10
62.86689628480087
 20
409.2251789669486
 30
0.0
 11
68.36689628480087
 21
409.2251789669486
 31
0.0
  0
LINE
  5
100B
330
1F
100
AcDbEntity
  8
05_口金
 62
     0
100
AcDbLine
 10
68.36689628480087
 20
416.2251789669486
 30
0.0
 11
68.36689628480087
 21
409.2251789669486
 31
0.0
  0
LINE
  5
100C
330
1F
100
AcDbEntity
  8
05_口金
 62
     0
100
AcDbLine
 10
62.86689628480087
 20
416.2251789669486
 30
0.0
 11
62.86689628480087
 21
409.2251789669486
 31
0.0
  0
ARC
  5
100D
330
1F
100
AcDbEntity
  8
05_口金
 62
     0
100
AcDbCircle
 10
63.4368962848115
 20
399.360178966947
 30
0.0
 40
2.0
100
AcDbArc
 50
0.0
 51
179.8975287541905
  0
LINE
  5
100E
330
1F
100
AcDbEntity
  8
05_口金
 62
     0
100
AcDbLine
 10
65.4368962848115
 20
399.360178966947
 30
0.0
 11
65.4368962848115
 21
398.2483837414899
 31
0.0
  0
LINE
  5
100F
330
1F
100
AcDbEntity
  8
05_口金
 62
     0
100
AcDbLine
 10
61.4368962848115
 20
399.360178966947
 30
0.0
 11
61.4368962848115
 21
399.1820035638181
 31
0.0
  0
ARC
  5
1010
330
1F
100
AcDbEntity
  8
05_口金
 62
     0
100
AcDbCircle
 10
66.4368962848115
 20
427.2019741924074
 30
0.0
 40
1.0
100
AcDbArc
 50
86.75809532640233
 51
180.0
  0
ARC
  5
1011
330
1F
100
AcDbEntity
  8
05_口金
 62
     0
100
AcDbCircle
 10
60.4368962848115
 20
426.2683543700792
 30
0.0
 40
1.0
100
AcDbArc
 50
0.0
 51
110.9308760222768
  0
ARC
  5
1012
330
1F
100
AcDbEntity
  8
05_口金
 62
     0
100
AcDbCircle
 10
63.4368962848115
 20
426.0901789669466
 30
0.0
 40
2.0
100
AcDbArc
 50
180.1024712458096
 51
0.0
  0
LINE
  5
1013
330
1F
100
AcDbEntity
  8
05_口金
 62
     0
100
AcDbLine
 10
65.4368962848115
 20
426.0901789669466
 30
0.0
 11
65.4368962848115
 21
427.2019741924074
 31
0.0
  0
LINE
  5
1014
330
1F
100
AcDbEntity
  8
05_口金
 62
     0
100
AcDbLine
 10
61.4368962848115
 20
426.0901789669466
 30
0.0
 11
61.4368962848115
 21
426.2683543700792
 31
0.0
  0
LINE
  5
1015
330
1F
100
AcDbEntity
  8
05_口金
 62
     0
100
AcDbLine
 10
66.76689628480051
 20
420.7435471620289
 30
0.0
 11
66.76689628480051
 21
418.9320237302187
 31
0.0
  0
LINE
  5
1016
330
1F
100
AcDbEntity
  8
05_口金
 62
     0
100
AcDbLine
 10
66.76689628480051
 20
406.5183342036786
 30
0.0
 11
66.76689628480051
 21
404.7068107718684
 31
0.0
  0
LINE
  5
1017
330
1F
100
AcDbEntity
  8
05_口金
 62
     0
100
AcDbLine
 10
64.46689628480124
 20
420.7435471620289
 30
0.0
 11
64.46689628480124
 21
418.9320237302187
 31
0.0
  0
LINE
  5
1018
330
1F
100
AcDbEntity
  8
05_口金
 62
     0
100
AcDbLine
 10
64.46689628480124
 20
406.5183342036786
 30
0.0
 11
64.46689628481033
 21
404.7068107718684
 31
0.0
  0
LINE
  5
1019
330
1F
100
AcDbEntity
  8
05_口金
 62
     0
100
AcDbLine
 10
64.45312010357009
 20
418.9251789669494
 30
0.0
 11
66.78067246604076
 21
418.9251789669494
 31
0.0
  0
LINE
  5
101A
330
1F
100
AcDbEntity
  8
05_口金
 62
     0
100
AcDbLine
 10
64.45312010357009
 20
406.5251789669479
 30
0.0
 11
66.78067246604076
 21
406.5251789669479
 31
0.0
  0
ARC
  5
101B
330
1F
100
AcDbEntity
  8
05_口金
 62
     0
100
AcDbCircle
 10
65.61689628480997
 20
408.8501789669486
 30
0.0
 40
4.299999999999999
100
AcDbArc
 50
180.0
 51
0.0
  0
ARC
  5
101C
330
1F
100
AcDbEntity
  8
05_口金
 62
     0
100
AcDbCircle
 10
65.61689628480997
 20
416.6001789669486
 30
0.0
 40
4.299999999999999
100
AcDbArc
 50
0.0
 51
180.0
  0
ARC
  5
101D
330
1F
100
AcDbEntity
  8
05_口金
 62
     0
100
AcDbCircle
 10
65.61689628480997
 20
408.8501789669486
 30
0.0
 40
2.6
100
AcDbArc
 50
180.0
 51
0.0
  0
ARC
  5
101E
330
1F
100
AcDbEntity
  8
05_口金
 62
     0
100
AcDbCircle
 10
65.61689628480997
 20
416.6001789669486
 30
0.0
 40
2.6
100
AcDbArc
 50
0.0
 51
180.0
  0
LINE
  5
101F
330
1F
100
AcDbEntity
  8
05_口金
 62
     0
100
AcDbLine
 10
68.21689628480124
 20
416.6001789669486
 30
0.0
 11
68.21689628480124
 21
416.2251789669486
 31
0.0
  0
LINE
  5
1020
330
1F
100
AcDbEntity
  8
05_口金
 62
     0
100
AcDbLine
 10
68.21689628480124
 20
409.2251789669486
 30
0.0
 11
68.21689628480124
 21
408.8501789669486
 31
0.0
  0
LINE
  5
1021
330
1F
100
AcDbEntity
  8
05_口金
 62
     0
100
AcDbLine
 10
63.01689628480051
 20
416.6001789669486
 30
0.0
 11
63.01689628480051
 21
416.2251789669486
 31
0.0
  0
LINE
  5
1022
330
1F
100
AcDbEntity
  8
05_口金
 62
     0
100
AcDbLine
 10
63.01689628480051
 20
409.2251789669486
 30
0.0
 11
63.01689628480051
 21
408.8501789669486
 31
0.0
  0
LINE
  5
1023
330
1F
100
AcDbEntity
  8
05_口金
 62
     0
100
AcDbLine
 10
63.01990283083103
 20
416.7251789669486
 30
0.0
 11
68.21388973877981
 21
416.7251789669486
 31
0.0
  0
LINE
  5
1024
330
1F
100
AcDbEntity
  8
05_口金
 62
     0
100
AcDbLine
 10
63.01990283083103
 20
408.7251789669486
 30
0.0
 11
68.21388973877981
 21
408.7251789669486
 31
0.0
  0
CIRCLE
  5
1025
330
1F
100
AcDbEntity
  8
05_口金
 62
     0
100
AcDbCircle
 10
65.61689603480988
 20
303.0757572781282
 30
0.0
 40
16.55
  0
ARC
  5
1026
330
1F
100
AcDbEntity
  8
05_口金
 62
     0
100
AcDbCircle
 10
65.61689603480988
 20
303.0757572781282
 30
0.0
 40
15.5
100
AcDbArc
 50
3.241904673505739
 51
176.7580953264943
  0
ARC
  5
1027
330
1F
100
AcDbEntity
  8
05_口金
 62
     0
100
AcDbCircle
 10
65.61689603480988
 20
303.0757572781282
 30
0.0
 40
15.5
100
AcDbArc
 50
200.9308760223717
 51
339.0691239776283
  0
ARC
  5
1028
330
1F
100
AcDbEntity
  8
05_口金
 62
     0
100
AcDbCircle
 10
80.09369126027048
 20
303.8957572781279
 30
0.0
 40
1.0
100
AcDbArc
 50
270.0
 51
3.241904673498994
  0
ARC
  5
1029
330
1F
100
AcDbEntity
  8
05_口金
 62
     0
100
AcDbCircle
 10
79.16007143794047
 20
297.8957572781279
 30
0.0
 40
1.0
100
AcDbArc
 50
339.0691239776277
 51
90.0
  0
LINE
  5
102A
330
1F
100
AcDbEntity
  8
05_口金
 62
     0
100
AcDbLine
 10
61.74189603480988
 20
307.3757572781275
 30
0.0
 11
69.49189603480988
 21
307.3757572781275
 31
0.0
  0
LINE
  5
102B
330
1F
100
AcDbEntity
  8
05_口金
 62
     0
100
AcDbLine
 10
61.74189603480988
 20
298.7757572781289
 30
0.0
 11
69.49189603480988
 21
298.7757572781289
 31
0.0
  0
LINE
  5
102C
330
1F
100
AcDbEntity
  8
05_口金
 62
     0
100
AcDbLine
 10
62.11689603480988
 20
300.3257572781282
 30
0.0
 11
62.11689603480988
 21
305.8257572781282
 31
0.0
  0
LINE
  5
102D
330
1F
100
AcDbEntity
  8
05_口金
 62
     0
100
AcDbLine
 10
69.11689603480079
 20
300.3257572781282
 30
0.0
 11
69.11689603480079
 21
305.8257572781282
 31
0.0
  0
LINE
  5
102E
330
1F
100
AcDbEntity
  8
05_口金
 62
     0
100
AcDbLine
 10
62.11689603480988
 20
305.8257572781282
 30
0.0
 11
69.11689603480079
 21
305.8257572781282
 31
0.0
  0
LINE
  5
102F
330
1F
100
AcDbEntity
  8
05_口金
 62
     0
100
AcDbLine
 10
62.11689603480988
 20
300.3257572781282
 30
0.0
 11
69.11689603480079
 21
300.3257572781282
 31
0.0
  0
ARC
  5
1030
330
1F
100
AcDbEntity
  8
05_口金
 62
     0
100
AcDbCircle
 10
78.98189603480057
 20
300.8957572781279
 30
0.0
 40
2.0
100
AcDbArc
 50
90.0
 51
269.8975287541904
  0
LINE
  5
1031
330
1F
100
AcDbEntity
  8
05_口金
 62
     0
100
AcDbLine
 10
78.98189603480057
 20
302.8957572781279
 30
0.0
 11
80.09369126027048
 21
302.8957572781279
 31
0.0
  0
LINE
  5
1032
330
1F
100
AcDbEntity
  8
05_口金
 62
     0
100
AcDbLine
 10
78.98189603480057
 20
298.8957572781279
 30
0.0
 11
79.16007143794047
 21
298.8957572781279
 31
0.0
  0
ARC
  5
1033
330
1F
100
AcDbEntity
  8
05_口金
 62
     0
100
AcDbCircle
 10
51.1401008093402
 20
303.8957572781279
 30
0.0
 40
1.0
100
AcDbArc
 50
176.758095326501
 51
270.0
  0
ARC
  5
1034
330
1F
100
AcDbEntity
  8
05_口金
 62
     0
100
AcDbCircle
 10
52.0737206316702
 20
297.8957572781279
 30
0.0
 40
1.0
100
AcDbArc
 50
90.0
 51
200.9308760223723
  0
ARC
  5
1035
330
1F
100
AcDbEntity
  8
05_口金
 62
     0
100
AcDbCircle
 10
52.2518960348101
 20
300.8957572781279
 30
0.0
 40
2.0
100
AcDbArc
 50
270.1024712457054
 51
90.0
  0
LINE
  5
1036
330
1F
100
AcDbEntity
  8
05_口金
 62
     0
100
AcDbLine
 10
52.2518960348101
 20
302.8957572781279
 30
0.0
 11
51.1401008093402
 21
302.8957572781279
 31
0.0
  0
LINE
  5
1037
330
1F
100
AcDbEntity
  8
05_口金
 62
     0
100
AcDbLine
 10
52.2518960348101
 20
298.8957572781279
 30
0.0
 11
52.0737206316702
 21
298.8957572781279
 31
0.0
  0
LINE
  5
1038
330
1F
100
AcDbEntity
  8
05_口金
 62
     0
100
AcDbLine
 10
57.59852783972053
 20
304.2257572781297
 30
0.0
 11
59.41005127153073
 21
304.2257572781297
 31
0.0
  0
LINE
  5
1039
330
1F
100
AcDbEntity
  8
05_口金
 62
     0
100
AcDbLine
 10
71.82374079807994
 20
304.2257572781297
 30
0.0
 11
73.63526422988105
 21
304.2257572781297
 31
0.0
  0
LINE
  5
103A
330
1F
100
AcDbEntity
  8
05_口金
 62
     0
100
AcDbLine
 10
57.59852783972053
 20
301.9257572781268
 30
0.0
 11
59.41005127153073
 21
301.9257572781268
 31
0.0
  0
LINE
  5
103B
330
1F
100
AcDbEntity
  8
05_口金
 62
     0
100
AcDbLine
 10
71.82374079807994
 20
301.9257572781268
 30
0.0
 11
73.63526422989014
 21
301.9257572781268
 31
0.0
  0
LINE
  5
103C
330
1F
100
AcDbEntity
  8
05_口金
 62
     0
100
AcDbLine
 10
59.41689603481097
 20
301.9119810968974
 30
0.0
 11
59.41689603481097
 21
304.239533459359
 31
0.0
  0
LINE
  5
103D
330
1F
100
AcDbEntity
  8
05_口金
 62
     0
100
AcDbLine
 10
71.81689603480152
 20
301.9119810968974
 30
0.0
 11
71.81689603480152
 21
304.239533459359
 31
0.0
  0
ARC
  5
103E
330
1F
100
AcDbEntity
  8
05_口金
 62
     0
100
AcDbCircle
 10
69.49189603480988
 20
303.0757572781282
 30
0.0
 40
4.299999999999999
100
AcDbArc
 50
270.0
 51
90.0
  0
ARC
  5
103F
330
1F
100
AcDbEntity
  8
05_口金
 62
     0
100
AcDbCircle
 10
61.74189603480988
 20
303.0757572781282
 30
0.0
 40
4.299999999999999
100
AcDbArc
 50
90.0
 51
270.0
  0
ARC
  5
1040
330
1F
100
AcDbEntity
  8
05_口金
 62
     0
100
AcDbCircle
 10
69.49189603480988
 20
303.0757572781282
 30
0.0
 40
2.6
100
AcDbArc
 50
270.0
 51
90.0
  0
ARC
  5
1041
330
1F
100
AcDbEntity
  8
05_口金
 62
     0
100
AcDbCircle
 10
61.74189603480988
 20
303.0757572781282
 30
0.0
 40
2.6
100
AcDbArc
 50
90.0
 51
270.0
  0
LINE
  5
1042
330
1F
100
AcDbEntity
  8
05_口金
 62
     0
100
AcDbLine
 10
61.74189603480988
 20
305.6757572781268
 30
0.0
 11
62.11689603480988
 21
305.6757572781268
 31
0.0
  0
LINE
  5
1043
330
1F
100
AcDbEntity
  8
05_口金
 62
     0
100
AcDbLine
 10
69.11689603480079
 20
305.6757572781268
 30
0.0
 11
69.49189603480988
 21
305.6757572781268
 31
0.0
  0
LINE
  5
1044
330
1F
100
AcDbEntity
  8
05_口金
 62
     0
100
AcDbLine
 10
61.74189603480988
 20
300.4757572781297
 30
0.0
 11
62.11689603480988
 21
300.4757572781297
 31
0.0
  0
LINE
  5
1045
330
1F
100
AcDbEntity
  8
05_口金
 62
     0
100
AcDbLine
 10
69.11689603480079
 20
300.4757572781297
 30
0.0
 11
69.49189603480988
 21
300.4757572781297
 31
0.0
  0
LINE
  5
1046
330
1F
100
AcDbEntity
  8
05_口金
 62
     0
100
AcDbLine
 10
61.61689603480079
 20
300.4787638241565
 30
0.0
 11
61.61689603480079
 21
305.6727507321071
 31
0.0
  0
LINE
  5
1047
330
1F
100
AcDbEntity
  8
05_口金
 62
     0
100
AcDbLine
 10
69.61689603480988
 20
300.4787638241565
 30
0.0
 11
69.61689603480988
 21
305.6727507321071
 31
0.0
  0
DIMENSION
  5
1048
330
1F
100
AcDbEntity
  8
20_DIM
 62
     0
100
AcDbDimension
  2
*D89
 10
34.20400105043007
 20
300.3257572781282
 30
0.0
 11
29.20400105043007
 21
276.9217572781282
 31
0.0
 70
    32
  3
STANDARD
100
AcDbAlignedDimension
 13
62.11689628480087
 23
305.8257572781282
 33
0.0
 14
62.11689628480087
 24
300.3257572781282
 34
0.0
 50
90.0
100
AcDbRotatedDimension
1001
ACAD
1000
DSTYLE
1002
{
1070
    41
1040
8.0
1070
    42
1040
1.0
1070
    44
1040
1.0
1070
   140
1040
8.0
1070
   147
1040
1.0
1070
   271
1070
     2
1002
}
  0
CIRCLE
  5
1049
330
1F
100
AcDbEntity
  8
05_口金
 62
     0
100
AcDbCircle
 10
599.402407963352
 20
508.3391555264169
 30
0.0
 40
33.1
  0
ARC
  5
104A
330
1F
100
AcDbEntity
  8
05_口金
 62
     0
100
AcDbCircle
 10
599.402407963352
 20
508.3391555264169
 30
0.0
 40
31.0
100
AcDbArc
 50
183.2419046734989
 51
356.758095326501
  0
ARC
  5
104B
330
1F
100
AcDbEntity
  8
05_口金
 62
     0
100
AcDbCircle
 10
599.402407963352
 20
508.3391555264169
 30
0.0
 40
31.0
100
AcDbArc
 50
20.93087602237151
 51
159.0691239776285
  0
ARC
  5
104C
330
1F
100
AcDbEntity
  8
05_口金
 62
     0
100
AcDbCircle
 10
570.4488175124217
 20
506.6991555264284
 30
0.0
 40
2.0
100
AcDbArc
 50
90.0
 51
183.2419046734989
  0
ARC
  5
104D
330
1F
100
AcDbEntity
  8
05_口金
 62
     0
100
AcDbCircle
 10
572.3160571570817
 20
518.6991555264284
 30
0.0
 40
2.0
100
AcDbArc
 50
159.0691239776077
 51
270.0
  0
LINE
  5
104E
330
1F
100
AcDbEntity
  8
05_口金
 62
     0
100
AcDbLine
 10
607.152407963352
 20
499.7391555264184
 30
0.0
 11
591.652407963352
 21
499.7391555264184
 31
0.0
  0
LINE
  5
104F
330
1F
100
AcDbEntity
  8
05_口金
 62
     0
100
AcDbLine
 10
607.152407963352
 20
516.9391555264264
 30
0.0
 11
591.652407963352
 21
516.9391555264264
 31
0.0
  0
LINE
  5
1050
330
1F
100
AcDbEntity
  8
05_口金
 62
     0
100
AcDbLine
 10
606.402407963352
 20
513.8391555264278
 30
0.0
 11
606.402407963352
 21
502.8391555264278
 31
0.0
  0
LINE
  5
1051
330
1F
100
AcDbEntity
  8
05_口金
 62
     0
100
AcDbLine
 10
592.4024079633429
 20
513.8391555264278
 30
0.0
 11
592.4024079633429
 21
502.8391555264278
 31
0.0
  0
LINE
  5
1052
330
1F
100
AcDbEntity
  8
05_口金
 62
     0
100
AcDbLine
 10
606.402407963352
 20
502.8391555264278
 30
0.0
 11
592.4024079633429
 21
502.8391555264278
 31
0.0
  0
LINE
  5
1053
330
1F
100
AcDbEntity
  8
05_口金
 62
     0
100
AcDbLine
 10
606.402407963352
 20
513.8391555264278
 30
0.0
 11
592.4024079633429
 21
513.8391555264278
 31
0.0
  0
ARC
  5
1054
330
1F
100
AcDbEntity
  8
05_口金
 62
     0
100
AcDbCircle
 10
572.6724079633415
 20
512.6991555264175
 30
0.0
 40
4.0
100
AcDbArc
 50
270.0
 51
89.89752875419045
  0
LINE
  5
1055
330
1F
100
AcDbEntity
  8
05_口金
 62
     0
100
AcDbLine
 10
572.6724079633415
 20
508.6991555264284
 30
0.0
 11
570.4488175124217
 21
508.6991555264284
 31
0.0
  0
LINE
  5
1056
330
1F
100
AcDbEntity
  8
05_口金
 62
     0
100
AcDbLine
 10
572.6724079633415
 20
516.6991555264175
 30
0.0
 11
572.3160571570817
 21
516.6991555264175
 31
0.0
  0
ARC
  5
1057
330
1F
100
AcDbEntity
  8
05_口金
 62
     0
100
AcDbCircle
 10
628.3559984142713
 20
506.6991555264284
 30
0.0
 40
2.0
100
AcDbArc
 50
356.7580953265012
 51
90.0
  0
ARC
  5
1058
330
1F
100
AcDbEntity
  8
05_口金
 62
     0
100
AcDbCircle
 10
626.4887587696113
 20
518.6991555264284
 30
0.0
 40
2.0
100
AcDbArc
 50
270.0
 51
20.93087602239225
  0
ARC
  5
1059
330
1F
100
AcDbEntity
  8
05_口金
 62
     0
100
AcDbCircle
 10
626.1324079633515
 20
512.6991555264175
 30
0.0
 40
4.0
100
AcDbArc
 50
90.10247124580957
 51
270.0
  0
LINE
  5
105A
330
1F
100
AcDbEntity
  8
05_口金
 62
     0
100
AcDbLine
 10
626.1324079633515
 20
508.6991555264284
 30
0.0
 11
628.3559984142713
 21
508.6991555264284
 31
0.0
  0
LINE
  5
105B
330
1F
100
AcDbEntity
  8
05_口金
 62
     0
100
AcDbLine
 10
626.1324079633515
 20
516.6991555264175
 30
0.0
 11
626.4887587696113
 21
516.6991555264175
 31
0.0
  0
LINE
  5
105C
330
1F
100
AcDbEntity
  8
05_口金
 62
     0
100
AcDbLine
 10
615.4391443535125
 20
506.0391555264285
 30
0.0
 11
611.8160974898921
 21
506.0391555264285
 31
0.0
  0
LINE
  5
105D
330
1F
100
AcDbEntity
  8
05_口金
 62
     0
100
AcDbLine
 10
586.9887184368027
 20
506.0391555264285
 30
0.0
 11
583.3656715731823
 21
506.0391555264285
 31
0.0
  0
LINE
  5
105E
330
1F
100
AcDbEntity
  8
05_口金
 62
     0
100
AcDbLine
 10
615.4391443535125
 20
510.6391555264271
 30
0.0
 11
611.8160974898921
 21
510.6391555264271
 31
0.0
  0
LINE
  5
105F
330
1F
100
AcDbEntity
  8
05_口金
 62
     0
100
AcDbLine
 10
586.9887184368027
 20
510.6391555264271
 30
0.0
 11
583.3656715731823
 21
510.6391555264271
 31
0.0
  0
LINE
  5
1060
330
1F
100
AcDbEntity
  8
05_口金
 62
     0
100
AcDbLine
 10
611.8024079633516
 20
510.6667078888894
 30
0.0
 11
611.8024079633516
 21
506.011603163959
 31
0.0
  0
LINE
  5
1061
330
1F
100
AcDbEntity
  8
05_口金
 62
     0
100
AcDbLine
 10
587.0024079633523
 20
510.6667078888894
 30
0.0
 11
587.0024079633523
 21
506.011603163959
 31
0.0
  0
ARC
  5
1062
330
1F
100
AcDbEntity
  8
05_口金
 62
     0
100
AcDbCircle
 10
591.652407963352
 20
508.3391555264169
 30
0.0
 40
8.6
100
AcDbArc
 50
90.0
 51
270.0
  0
ARC
  5
1063
330
1F
100
AcDbEntity
  8
05_口金
 62
     0
100
AcDbCircle
 10
607.152407963352
 20
508.3391555264169
 30
0.0
 40
8.6
100
AcDbArc
 50
270.0
 51
90.0
  0
ARC
  5
1064
330
1F
100
AcDbEntity
  8
05_口金
 62
     0
100
AcDbCircle
 10
591.652407963352
 20
508.3391555264169
 30
0.0
 40
5.2
100
AcDbArc
 50
90.0
 51
270.0
  0
ARC
  5
1065
330
1F
100
AcDbEntity
  8
05_口金
 62
     0
100
AcDbCircle
 10
607.152407963352
 20
508.3391555264169
 30
0.0
 40
5.2
100
AcDbArc
 50
270.0
 51
90.0
  0
LINE
  5
1066
330
1F
100
AcDbEntity
  8
05_口金
 62
     0
100
AcDbLine
 10
607.152407963352
 20
503.1391555264271
 30
0.0
 11
606.402407963352
 21
503.1391555264271
 31
0.0
  0
LINE
  5
1067
330
1F
100
AcDbEntity
  8
05_口金
 62
     0
100
AcDbLine
 10
592.4024079633429
 20
503.1391555264271
 30
0.0
 11
591.652407963352
 21
503.1391555264271
 31
0.0
  0
LINE
  5
1068
330
1F
100
AcDbEntity
  8
05_口金
 62
     0
100
AcDbLine
 10
607.152407963352
 20
513.5391555264285
 30
0.0
 11
606.402407963352
 21
513.5391555264285
 31
0.0
  0
LINE
  5
1069
330
1F
100
AcDbEntity
  8
05_口金
 62
     0
100
AcDbLine
 10
592.4024079633429
 20
513.5391555264285
 30
0.0
 11
591.652407963352
 21
513.5391555264285
 31
0.0
  0
LINE
  5
106A
330
1F
100
AcDbEntity
  8
05_口金
 62
     0
100
AcDbLine
 10
607.402407963352
 20
513.5331424343784
 30
0.0
 11
607.402407963352
 21
503.1451686184663
 31
0.0
  0
LINE
  5
106B
330
1F
100
AcDbEntity
  8
05_口金
 62
     0
100
AcDbLine
 10
591.402407963352
 20
513.5331424343784
 30
0.0
 11
591.402407963352
 21
503.1451686184663
 31
0.0
  0
MTEXT
  5
106C
330
1F
100
AcDbEntity
  8
20_DIM
 62
     0
100
AcDbMText
 10
543.3377780514612
 20
563.0594711065168
 30
0.0
 40
8.0
 41
0.0
 71
     7
 72
     1
  1
口金へのレーザーマーキング
  0
LINE
  5
106D
330
1F
100
AcDbEntity
  8
20_DIM
 62
     0
100
AcDbLine
 10
590.8524079633527
 20
481.1391555264271
 30
0.0
 11
607.9524079633421
 21
481.1391555264271
 31
0.0
  0
LINE
  5
106E
330
1F
100
AcDbEntity
  8
20_DIM
 62
     0
100
AcDbLine
 10
590.8524079633527
 20
498.2391555264293
 30
0.0
 11
590.8524079633527
 21
481.1391555264271
 31
0.0
  0
LINE
  5
106F
330
1F
100
AcDbEntity
  8
20_DIM
 62
     0
100
AcDbLine
 10
590.8524079633527
 20
483.9891555264293
 30
0.0
 11
607.9524079633421
 21
483.9891555264293
 31
0.0
  0
LINE
  5
1070
330
1F
100
AcDbEntity
  8
20_DIM
 62
     0
100
AcDbLine
 10
590.8524079633527
 20
486.8391555264169
 30
0.0
 11
607.9524079633421
 21
486.8391555264169
 31
0.0
  0
LINE
  5
1071
330
1F
100
AcDbEntity
  8
20_DIM
 62
     0
100
AcDbLine
 10
590.8524079633527
 20
489.6891555264264
 30
0.0
 11
607.9524079633421
 21
489.6891555264264
 31
0.0
  0
LINE
  5
1072
330
1F
100
AcDbEntity
  8
20_DIM
 62
     0
100
AcDbLine
 10
590.8524079633527
 20
492.5391555264285
 30
0.0
 11
607.9524079633421
 21
492.5391555264285
 31
0.0
  0
LINE
  5
1073
330
1F
100
AcDbEntity
  8
20_DIM
 62
     0
100
AcDbLine
 10
590.8524079633527
 20
495.3891555264271
 30
0.0
 11
607.9524079633421
 21
495.3891555264271
 31
0.0
  0
LINE
  5
1074
330
1F
100
AcDbEntity
  8
20_DIM
 62
     0
100
AcDbLine
 10
593.7024079633421
 20
498.2391555264293
 30
0.0
 11
593.7024079633421
 21
481.1391555264271
 31
0.0
  0
LINE
  5
1075
330
1F
100
AcDbEntity
  8
20_DIM
 62
     0
100
AcDbLine
 10
596.5524079633516
 20
498.2391555264293
 30
0.0
 11
596.5524079633516
 21
481.1391555264271
 31
0.0
  0
LINE
  5
1076
330
1F
100
AcDbEntity
  8
20_DIM
 62
     0
100
AcDbLine
 10
599.402407963352
 20
498.2391555264293
 30
0.0
 11
599.402407963352
 21
481.1391555264271
 31
0.0
  0
LINE
  5
1077
330
1F
100
AcDbEntity
  8
20_DIM
 62
     0
100
AcDbLine
 10
602.2524079633414
 20
498.2391555264293
 30
0.0
 11
602.2524079633414
 21
481.1391555264271
 31
0.0
  0
LINE
  5
1078
330
1F
100
AcDbEntity
  8
20_DIM
 62
     0
100
AcDbLine
 10
605.1024079633527
 20
498.2391555264293
 30
0.0
 11
605.1024079633527
 21
481.1391555264271
 31
0.0
  0
LINE
  5
1079
330
1F
100
AcDbEntity
  8
20_DIM
 62
     0
100
AcDbLine
 10
607.9524079633421
 20
498.2391555264293
 30
0.0
 11
607.9524079633421
 21
481.1391555264271
 31
0.0
  0
LINE
  5
107A
330
1F
100
AcDbEntity
  8
20_DIM
 62
     0
100
AcDbLine
 10
590.8524079633527
 20
498.2391555264293
 30
0.0
 11
607.9524079633421
 21
498.2391555264293
 31
0.0
  0
ARC
  5
107B
330
1F
100
AcDbEntity
  8
20_DIM0
 62
     0
100
AcDbCircle
 10
599.402407963352
 20
508.3391555264169
 30
0.0
 40
40.0
100
AcDbArc
 50
181.4325437374414
 51
358.5674562625586
  0
ARC
  5
107C
330
1F
100
AcDbEntity
  8
20_DIM0
 62
     0
100
AcDbCircle
 10
599.402407963352
 20
508.3391555264169
 30
0.0
 40
40.0
100
AcDbArc
 50
1.432543737441402
 51
178.5674562625586
  0
LINE
  5
107D
330
1F
100
AcDbEntity
  8
20_DIM0
 62
     0
100
AcDbLine
 10
559.4149099170819
 20
509.3391555264169
 30
0.0
 11
557.9794886483425
 21
516.0922816471392
 31
0.0
  0
LINE
  5
107E
330
1F
100
AcDbEntity
  8
20_DIM0
 62
     0
100
AcDbLine
 10
559.4149099170819
 20
509.3391555264169
 30
0.0
 11
561.5483616935718
 21
515.905244936297
 31
0.0
  0
LINE
  5
107F
330
1F
100
AcDbEntity
  8
20_DIM0
 62
     0
100
AcDbLine
 10
559.4149099170819
 20
507.3391555264169
 30
0.0
 11
557.9794886483425
 21
500.5860294057092
 31
0.0
  0
LINE
  5
1080
330
1F
100
AcDbEntity
  8
20_DIM0
 62
     0
100
AcDbLine
 10
559.4149099170819
 20
507.3391555264169
 30
0.0
 11
561.5483616935718
 21
500.7730661165587
 31
0.0
  0
LINE
  5
1081
330
1F
100
AcDbEntity
  8
20_DIM0
 62
     0
100
AcDbLine
 10
639.3899060096111
 20
509.3391555264169
 30
0.0
 11
640.8253272783523
 21
516.0922816471392
 31
0.0
  0
LINE
  5
1082
330
1F
100
AcDbEntity
  8
20_DIM0
 62
     0
100
AcDbLine
 10
639.3899060096111
 20
509.3391555264169
 30
0.0
 11
637.2564542331212
 21
515.905244936297
 31
0.0
  0
LINE
  5
1083
330
1F
100
AcDbEntity
  8
20_DIM0
 62
     0
100
AcDbLine
 10
639.3899060096111
 20
507.3391555264169
 30
0.0
 11
640.8253272783523
 21
500.5860294057092
 31
0.0
  0
LINE
  5
1084
330
1F
100
AcDbEntity
  8
20_DIM0
 62
     0
100
AcDbLine
 10
639.3899060096111
 20
507.3391555264169
 30
0.0
 11
637.2564542331212
 21
500.7730661165587
 31
0.0
  0
MTEXT
  5
1085
330
1F
100
AcDbEntity
  8
20_DIM
 62
     0
100
AcDbMText
 10
554.8228582723815
 20
548.9255252195179
 30
0.0
 40
6.0
 41
0.0
 71
     7
 72
     1
  1
アルミカバー側
  0
MTEXT
  5
1086
330
1F
100
AcDbEntity
  8
20_DIM
 62
     0
100
AcDbMText
 10
538.5022261585319
 20
460.7227204446789
 30
0.0
 40
6.0
 41
0.0
 71
     7
 72
     1
  1
拡散カバー側（発光面側）
  0
TEXT
  5
1087
330
1F
100
AcDbEntity
  8
20_DIM
 62
     0
100
AcDbText
 10
577.2206492356319
 20
526.1788738092581
 30
0.0
 40
4.0
  1
MADE IN JAPAN
100
AcDbText
  0
TEXT
  5
1088
330
1F
100
AcDbEntity
  8
20_DIM
 62
     0
100
AcDbText
 10
591.3737192382315
 20
532.5540360404992
 30
0.0
 40
4.0
  1
1601
100
AcDbText
  0
MTEXT
  5
1089
102
{ACAD_REACTORS
330
108A
102
}
330
1F
100
AcDbEntity
  8
20_DIM
 62
     0
100
AcDbMText
 10
135.9610882116598
 20
436.4462702714178
 30
0.0
 40
8.0
 41
0.0
 71
     9
 72
     1
  1
給電ピン側
  0
LEADER
  5
108A
330
1F
100
AcDbEntity
  8
20_DIM
 62
     0
100
AcDbLeader
  3
STANDARD
 73
     0
 75
     1
 40
10.768
 41
50.93599999999999
 76
     3
 10
149.284511343871
 20
419.9001789669479
 30
0.0
 10
144.9610882116598
 20
435.4462702714178
 30
0.0
 10
136.9610882116598
 20
435.4462702714178
 30
0.0
340
1089
1001
ACAD
1000
DSTYLE
1002
{
1070
     5
1000
DOTSMALL
1070
   341
1005
81B
1070
    41
1040
8.0
1070
    42
1040
1.0
1070
    44
1040
1.0
1070
   140
1040
8.0
1070
   147
1040
1.0
1070
   271
1070
     2
1002
}
  0
MTEXT
  5
108B
102
{ACAD_REACTORS
330
108C
102
}
330
1F
100
AcDbEntity
  8
20_DIM
 62
     0
100
AcDbMText
 10
667.0044148917815
 20
456.8246607707077
 30
0.0
 40
6.0
 41
0.0
 71
     7
 72
     1
  1
２次元バーコード\P（弊社管理用）
  0
LEADER
  5
108C
330
1F
100
AcDbEntity
  8
20_DIM
 62
     0
100
AcDbLeader
  3
STANDARD
 73
     0
 74
     0
 75
     1
 40
18.922
 41
56.262
 76
     3
 10
604.8672944579422
 20
494.6024241366684
 30
0.0
 10
658.0044148917815
 20
455.8246607707077
 30
0.0
 10
666.0044148917815
 20
455.8246607707077
 30
0.0
340
108B
1001
ACAD
1000
DSTYLE
1002
{
1070
     5
1000
DOTSMALL
1070
   341
1005
81B
1070
    41
1040
8.0
1070
    42
1040
1.0
1070
    44
1040
1.0
1070
   140
1040
8.0
1070
   147
1040
1.0
1070
   271
1070
     2
1002
}
  0
MTEXT
  5
108D
102
{ACAD_REACTORS
330
108E
102
}
330
1F
100
AcDbEntity
  8
20_DIM
 62
     0
100
AcDbMText
 10
667.5646323379616
 20
478.7380145213391
 30
0.0
 40
6.0
 41
0.0
 71
     7
 72
     1
  1
管理コード
  0
LEADER
  5
108E
330
1F
100
AcDbEntity
  8
20_DIM
 62
     0
100
AcDbLeader
  3
STANDARD
 73
     0
 74
     0
 75
     1
 40
7.836
 41
35.886
 76
     3
 10
605.1471504441826
 20
519.9335194030281
 30
0.0
 10
658.5646323379616
 20
477.7380145213391
 30
0.0
 10
666.5646323379616
 20
477.7380145213391
 30
0.0
340
108D
1001
ACAD
1000
DSTYLE
1002
{
1070
     5
1000
OPEN
1070
   341
1005
784
1070
    41
1040
8.0
1070
    42
1040
1.0
1070
    44
1040
1.0
1070
   140
1040
8.0
1070
   147
1040
1.0
1070
   271
1070
     2
1002
}
  0
MTEXT
  5
108F
102
{ACAD_REACTORS
330
1090
102
}
330
1F
100
AcDbEntity
  8
20_DIM
 62
     0
100
AcDbMText
 10
634.0714952569916
 20
544.8453255180392
 30
0.0
 40
6.0
 41
0.0
 71
     7
 72
     1
  1
製造ロット表示
  0
LEADER
  5
1090
330
1F
100
AcDbEntity
  8
20_DIM
 62
     0
100
AcDbLeader
  3
STANDARD
 73
     0
 74
     0
 75
     1
 40
8.142
 41
51.32400000000001
 76
     3
 10
606.5495872757721
 20
535.7784008392663
 30
0.0
 10
625.0714952569916
 20
543.8453255180392
 30
0.0
 10
633.0714952569916
 20
543.8453255180392
 30
0.0
340
108F
1001
ACAD
1000
DSTYLE
1002
{
1070
     5
1000
OPEN
1070
   341
1005
784
1070
    41
1040
8.0
1070
    42
1040
1.0
1070
    44
1040
1.0
1070
   140
1040
8.0
1070
   147
1040
1.0
1070
   271
1070
     2
1002
}
  0
MTEXT
  5
1091
102
{ACAD_REACTORS
330
1092
102
}
330
1F
100
AcDbEntity
  8
20_DIM
 62
     0
100
AcDbMText
 10
665.3765158854213
 20
513.7986309990482
 30
0.0
 40
6.0
 41
0.0
 71
     7
 72
     1
  1
生産国
  0
LEADER
  5
1092
330
1F
100
AcDbEntity
  8
20_DIM
 62
     0
100
AcDbLeader
  3
STANDARD
 73
     0
 74
     0
 75
     1
 40
7.907999999999999
 41
24.672
 76
     3
 10
622.2902642170021
 20
528.2749095657672
 30
0.0
 10
656.3765158854213
 20
512.7986309990482
 30
0.0
 10
664.3765158854213
 20
512.7986309990482
 30
0.0
340
1091
1001
ACAD
1000
DSTYLE
1002
{
1070
     5
1000
OPEN
1070
   341
1005
784
1070
    41
1040
8.0
1070
    42
1040
1.0
1070
    44
1040
1.0
1070
   140
1040
8.0
1070
   147
1040
1.0
1070
   271
1070
     2
1002
}
  0
TEXT
  5
1093
330
1F
100
AcDbEntity
  8
20_DIM
 62
     0
100
AcDbText
 10
591.4083032101618
 20
518.1339017196768
 30
0.0
 40
4.0
  1
****
100
AcDbText
  0
TEXT
  5
1094
330
1F
100
AcDbEntity
  8
20_DIM
 62
     0
100
AcDbText
 10
609.2538378628625
 20
518.1339017196768
 30
0.0
 40
4.0
  1
*
100
AcDbText
  0
MTEXT
  5
1095
102
{ACAD_REACTORS
330
1096
102
}
330
1F
100
AcDbEntity
  8
20_DIM
 62
     0
100
AcDbMText
 10
665.1253641541927
 20
490.4461925734867
 30
0.0
 40
6.0
 41
0.0
 71
     7
 72
     1
  1
保証年数\P（印字無い場合は1年保証）
  0
LEADER
  5
1096
330
1F
100
AcDbEntity
  8
20_DIM
 62
     0
100
AcDbLeader
  3
STANDARD
 73
     0
 74
     0
 75
     1
 40
19.096
 41
94.296
 76
     3
 10
612.6670967676029
 20
520.4875020063263
 30
0.0
 10
656.1253641541927
 20
489.4461925734867
 30
0.0
 10
664.1253641541927
 20
489.4461925734867
 30
0.0
340
1095
1001
ACAD
1000
DSTYLE
1002
{
1070
     5
1000
OPEN
1070
   341
1005
784
1070
    41
1040
8.0
1070
    42
1040
1.0
1070
    44
1040
1.0
1070
   140
1040
8.0
1070
   147
1040
1.0
1070
   271
1070
     2
1002
}
  0
ENDSEC
  0
SECTION
  2
OBJECTS
  0
DICTIONARY
  5
C
330
0
100
AcDbDictionary
  3
ACAD_DETAILVIEWSTYLE
350
9CE
  3
ACAD_GROUP
350
D
  3
ACAD_IMAGE_VARS
350
770
  3
ACAD_MLINESTYLE
350
17
  3
ACAD_SCALELIST
350
117B
  3
ACAD_SECTIONVIEWSTYLE
350
9CF
  3
ACDBVARIABLEDICTIONARY
350
9C9
  3
APPDATA
350
76E
  3
CENTERLINE
350
A56
  3
DIMOFFSETDICTIONARY
350
A51
  3
DWGPROPS
350
11F6
  0
DICTIONARY
  5
8B8
330
2
100
AcDbDictionary
280
     1
  3
ACAD_LAYERSTATES
360
8B9
  0
DICTIONARY
  5
9CE
102
{ACAD_REACTORS
330
C
102
}
330
C
100
AcDbDictionary
  0
DICTIONARY
  5
D
102
{ACAD_REACTORS
330
C
102
}
330
C
100
AcDbDictionary
  0
RASTERVARIABLES
  5
770
102
{ACAD_REACTORS
330
C
102
}
330
C
100
AcDbRasterVariables
 90
        0
 70
     1
 71
     1
 72
     1
  0
DICTIONARY
  5
17
102
{ACAD_REACTORS
330
C
102
}
330
C
100
AcDbDictionary
  3
STANDARD
350
18
  0
DICTIONARY
  5
117B
102
{ACAD_REACTORS
330
C
102
}
330
C
100
AcDbDictionary
  0
DICTIONARY
  5
9CF
102
{ACAD_REACTORS
330
C
102
}
330
C
100
AcDbDictionary
  0
DICTIONARY
  5
9C9
102
{ACAD_REACTORS
330
C
102
}
330
C
100
AcDbDictionary
  0
DICTIONARY
  5
76E
102
{ACAD_REACTORS
330
C
102
}
330
C
100
AcDbDictionary
  0
DICTIONARY
  5
A56
102
{ACAD_REACTORS
330
C
102
}
330
C
100
AcDbDictionary
  3
CLEXTENSION
350
A57
  0
DICTIONARY
  5
A51
102
{ACAD_REACTORS
330
C
102
}
330
C
100
AcDbDictionary
  3
DIMRAILANGLE
350
A54
  3
DIMRAILFIRSTOFFSET
350
A52
  3
DIMRAILOFFSET
350
A53
  3
DIMRAILSENABLED
350
A55
  0
XRECORD
  5
11F6
102
{ACAD_REACTORS
330
C
102
}
330
C
100
AcDbXrecord
  1
DWGPROPS COOKIE
  2

  3

  4

  6

  7

  8
niinuma-seki
  9

300
=
301
=
302
=
303
=
304
=
305
=
306
=
307
=
308
=
309
=
 40
0.0
 41
2457549.497895278
 42
2458192.091707651
  1

 90
        0
  0
DICTIONARY
  5
8B9
102
{ACAD_REACTORS
330
8B8
102
}
330
8B8
100
AcDbDictionary
  0
MLINESTYLE
  5
18
102
{ACAD_REACTORS
330
17
102
}
330
17
100
AcDbMlineStyle
  2
Standard
 70
     0
  3

 62
   256
 51
90.0
 52
90.0
 71
     2
 49
0.5
 62
   256
  6
BYLAYER
 49
-0.5
 62
   256
  6
BYLAYER
  0
DICTIONARYVAR
  5
A57
102
{ACAD_REACTORS
330
A56
102
}
330
A56
100
DictionaryVariables
280
     0
  1
0.250000
  0
DICTIONARYVAR
  5
A54
102
{ACAD_REACTORS
330
A51
102
}
330
A51
100
DictionaryVariables
280
     0
  1
0.261799
  0
DICTIONARYVAR
  5
A52
102
{ACAD_REACTORS
330
A51
102
}
330
A51
100
DictionaryVariables
280
     0
  1
0.400000
  0
DICTIONARYVAR
  5
A53
102
{ACAD_REACTORS
330
A51
102
}
330
A51
100
DictionaryVariables
280
     0
  1
0.250000
  0
DICTIONARYVAR
  5
A55
102
{ACAD_REACTORS
330
A51
102
}
330
A51
100
DictionaryVariables
280
     0
  1
0
  0
ENDSEC
  0
EOF
